<?xml version="1.0" standalone="no"?>
<!DOCTYPE svg PUBLIC "-//W3C//DTD SVG 1.1//EN" "http://www.w3.org/Graphics/SVG/1.1/DTD/svg11.dtd" >
<!--
2013-9-30: Created.
-->
<svg>
<metadata>
Created by iconfont
</metadata>
<defs>

<font id="iconfont" horiz-adv-x="1024" >
  <font-face
    font-family="iconfont"
    font-weight="500"
    font-stretch="normal"
    units-per-em="1024"
    ascent="896"
    descent="-128"
  />
    <missing-glyph />
    
    <glyph glyph-name="back" unicode="&#59031;" d="M363.840919 423.021263C336.938714 398.641139 337.301807 358.513862 364.730379 334.513862L673.951902 63.94503C682.818816 56.186481 696.296418 57.084988 704.05497 65.951902 711.813519 74.818816 710.915012 88.296418 702.048098 96.05497L392.826577 366.623802C384.59578 373.825747 384.502227 384.164713 392.492414 391.40582L702.325747 672.192277C711.056111 680.104171 711.719614 693.595384 703.807723 702.325748 695.895829 711.056111 682.404617 711.719614 673.674253 703.807722L363.840919 423.021263Z"  horiz-adv-x="1024" />

    
    <glyph glyph-name="cart" unicode="&#59032;" d="M235.097303 196.866982C247.384597 160.417152 286.382106 132.376068 324.772759 132.376068L861.658537 132.376068 880.429732 132.376068 885.649214 150.541854 1009.08775 580.154957C1021.388907 622.967661 993.187631 660.786325 949.051586 660.786325L424.585365 660.786325C410.791718 660.786325 399.609756 649.520738 399.609756 635.623932 399.609756 621.727125 410.791718 610.461538 424.585365 610.461538L949.051586 610.461538C959.924 610.461538 964.161052 604.779539 961.106394 594.148171L837.667859 164.535068 861.658537 182.700855 324.772759 182.700855C307.742153 182.700855 287.789837 197.047529 282.395194 213.050549L73.600164 832.433664C69.16437 845.592294 54.980454 852.636656 41.919502 848.167687 28.858551 843.698719 21.86648 829.408727 26.302275 816.250097L235.097303 196.866982ZM399.609756-6.017094C399.609756 49.570129 354.881911 94.632478 299.707317 94.632478 244.532723 94.632478 199.804878 49.570129 199.804878-6.017094 199.804878-61.604318 244.532723-106.666667 299.707317-106.666667 354.881911-106.666667 399.609756-61.604318 399.609756-6.017094ZM249.756098-6.017094C249.756098 21.776518 272.120021 44.307693 299.707317 44.307693 327.294613 44.307693 349.658537 21.776518 349.658537-6.017094 349.658537-33.810705 327.294613-56.341879 299.707317-56.341879 272.120021-56.341879 249.756098-33.810705 249.756098-6.017094ZM924.097562-6.017094C924.097562 49.570129 879.369715 94.632478 824.195121 94.632478 769.020529 94.632478 724.292683 49.570129 724.292683-6.017094 724.292683-61.604318 769.020529-106.666667 824.195121-106.666667 879.369715-106.666667 924.097562-61.604318 924.097562-6.017094ZM774.243902-6.017094C774.243902 21.776518 796.607825 44.307693 824.195121 44.307693 851.782419 44.307693 874.146342 21.776518 874.146342-6.017094 874.146342-33.810705 851.782419-56.341879 824.195121-56.341879 796.607825-56.341879 774.243902-33.810705 774.243902-6.017094Z"  horiz-adv-x="1024" />

    
    <glyph glyph-name="category" unicode="&#59033;" d="M134.095238 640C147.560466 640 158.476191 649.551259 158.476191 661.333333 158.476191 673.115408 147.560466 682.666667 134.095238 682.666667L36.571428 682.666667C23.1062 682.666667 12.190476 673.115408 12.190476 661.333333 12.190476 649.551259 23.1062 640 36.571428 640L134.095238 640ZM134.095238 362.666667C147.560466 362.666667 158.476191 372.217926 158.476191 384 158.476191 395.782074 147.560466 405.333333 134.095238 405.333333L36.571428 405.333333C23.1062 405.333333 12.190476 395.782074 12.190476 384 12.190476 372.217926 23.1062 362.666667 36.571428 362.666667L134.095238 362.666667ZM134.095238 85.333333C147.560466 85.333333 158.476191 94.884593 158.476191 106.666667 158.476191 118.44874 147.560466 128 134.095238 128L36.571428 128C23.1062 128 12.190476 118.44874 12.190476 106.666667 12.190476 94.884593 23.1062 85.333333 36.571428 85.333333L134.095238 85.333333ZM987.428572 640C1000.893801 640 1011.809523 649.551259 1011.809523 661.333333 1011.809523 673.115408 1000.893801 682.666667 987.428572 682.666667L280.380951 682.666667C266.915725 682.666667 256 673.115408 256 661.333333 256 649.551259 266.915725 640 280.380951 640L987.428572 640ZM993.52381 362.666667C1006.989037 362.666667 1017.904762 372.217926 1017.904762 384 1017.904762 395.782074 1006.989037 405.333333 993.52381 405.333333L286.47619 405.333333C273.010963 405.333333 262.095238 395.782074 262.095238 384 262.095238 372.217926 273.010963 362.666667 286.47619 362.666667L993.52381 362.666667ZM996.571428 85.333333C1010.036657 85.333333 1020.952382 94.884593 1020.952382 106.666667 1020.952382 118.44874 1010.036657 128 996.571428 128L289.52381 128C276.058581 128 265.142857 118.44874 265.142857 106.666667 265.142857 94.884593 276.058581 85.333333 289.52381 85.333333L996.571428 85.333333Z"  horiz-adv-x="1024" />

    
    <glyph glyph-name="close" unicode="&#59034;" d="M176.661601 78.827119C168.472798 70.355945 168.701706 56.850364 177.172881 48.661562 185.644056 40.472759 199.149636 40.701668 207.338438 49.172843L826.005105 689.172843C834.193907 697.644017 833.964998 711.149597 825.493824 719.338399 817.02265 727.527202 803.517069 727.298294 795.328267 718.827119L176.661601 78.827119ZM795.328267 49.172843C803.517069 40.701668 817.02265 40.472759 825.493824 48.661562 833.964998 56.850364 834.193907 70.355945 826.005105 78.827119L207.338438 718.827119C199.149636 727.298294 185.644056 727.527202 177.172881 719.338399 168.701706 711.149597 168.472798 697.644017 176.661601 689.172843L795.328267 49.172843Z"  horiz-adv-x="1024" />

    
    <glyph glyph-name="comments" unicode="&#59035;" d="M131.253515 106.666667C87.810305 106.666667 52.51282 142.526025 52.51282 186.58237L52.51282 826.666667 26.25641 800 892.853331 800C936.231586 800 971.487179 764.146714 971.487179 720.084297L971.487179 80 997.74359 106.666667 525.128205 106.666667 517.234323 106.666667 510.649171 102.245587 285.912493-48.636066C273.815607-56.757562 270.491629-73.301024 278.488179-85.586923 286.484727-97.872821 302.773675-101.248736 314.87056-93.127241L539.607238 57.754413 525.128205 53.333333 997.74359 53.333333 1024 53.333333 1024 80 1024 720.084297C1024 793.58631 965.24899 853.333333 892.853331 853.333333L26.25641 853.333333 0 853.333333 0 826.666667 0 186.58237C0 113.074285 58.804881 53.333333 131.253515 53.333333L268.117303 53.333333C282.618319 53.333333 294.373713 65.272407 294.373713 80 294.373713 94.727593 282.618319 106.666667 268.117303 106.666667L131.253515 106.666667ZM367.589743 453.333333C367.589743 512.243706 320.568162 560 262.564102 560 204.560043 560 157.538461 512.243706 157.538461 453.333333 157.538461 394.422961 204.560043 346.666667 262.564102 346.666667 320.568162 346.666667 367.589743 394.422961 367.589743 453.333333ZM210.051282 453.333333C210.051282 482.788521 233.562074 506.666667 262.564102 506.666667 291.566133 506.666667 315.076924 482.788521 315.076924 453.333333 315.076924 423.878146 291.566133 400 262.564102 400 233.562074 400 210.051282 423.878146 210.051282 453.333333ZM630.153845 453.333333C630.153845 512.243706 583.132265 560 525.128205 560 467.124145 560 420.102564 512.243706 420.102564 453.333333 420.102564 394.422961 467.124145 346.666667 525.128205 346.666667 583.132265 346.666667 630.153845 394.422961 630.153845 453.333333ZM472.615386 453.333333C472.615386 482.788521 496.126176 506.666667 525.128205 506.666667 554.130236 506.666667 577.641026 482.788521 577.641026 453.333333 577.641026 423.878146 554.130236 400 525.128205 400 496.126176 400 472.615386 423.878146 472.615386 453.333333ZM892.717948 453.333333C892.717948 512.243706 845.696367 560 787.692307 560 729.688247 560 682.666667 512.243706 682.666667 453.333333 682.666667 394.422961 729.688247 346.666667 787.692307 346.666667 845.696367 346.666667 892.717948 394.422961 892.717948 453.333333ZM735.179488 453.333333C735.179488 482.788521 758.690278 506.666667 787.692307 506.666667 816.694338 506.666667 840.205129 482.788521 840.205129 453.333333 840.205129 423.878146 816.694338 400 787.692307 400 758.690278 400 735.179488 423.878146 735.179488 453.333333Z"  horiz-adv-x="1024" />

    
    <glyph glyph-name="delete" unicode="&#59037;" d="M972.657609 686.651592C987.158609 686.63161 998.930114 698.428798 998.949999 713.00135 998.969882 727.573903 987.230618 739.40349 972.729617 739.423472L32.457975 740.719194C17.956974 740.739177 6.18547 728.941988 6.165585 714.369436 6.1457 699.796884 17.884965 687.967297 32.385966 687.947314L972.657609 686.651592ZM180.466902-96.356169 180.466902-123.014859 206.993296-122.74074 833.361858-116.267947 859.348284-115.999407 859.348284-89.883377 859.348284 606.602703C859.348284 621.175268 847.59289 632.988668 833.091874 632.988668 818.590859 632.988668 806.835465 621.175268 806.835465 606.602703L806.835465-89.883377 832.82189-63.498805 206.453329-69.971599 232.979723-96.356169 232.979723 613.32995C232.979723 627.902517 221.224329 639.715915 206.723313 639.715915 192.222298 639.715915 180.466902 627.902517 180.466902 613.32995L180.466902-96.356169ZM656.410257 48.920973C656.410257 34.348407 668.165651 22.535008 682.666667 22.535008 697.167682 22.535008 708.923076 34.348407 708.923076 48.920973L708.923076 523.868341C708.923076 538.440909 697.167682 550.254306 682.666667 550.254306 668.165651 550.254306 656.410257 538.440909 656.410257 523.868341L656.410257 48.920973ZM341.333333 48.920973C341.333333 34.348407 353.08873 22.535008 367.589743 22.535008 382.090758 22.535008 393.846155 34.348407 393.846155 48.920973L393.846155 523.868341C393.846155 538.440909 382.090758 550.254306 367.589743 550.254306 353.08873 550.254306 341.333333 538.440909 341.333333 523.868341L341.333333 48.920973ZM498.871795 48.920973C498.871795 34.348407 510.627189 22.535008 525.128205 22.535008 539.62922 22.535008 551.384614 34.348407 551.384614 48.920973L551.384614 523.868341C551.384614 538.440909 539.62922 550.254306 525.128205 550.254306 510.627189 550.254306 498.871795 538.440909 498.871795 523.868341L498.871795 48.920973ZM392.147755 779.278223C392.147755 793.936331 403.758665 805.636493 418.40134 805.636493L622.925796 805.636493C637.408947 805.636493 649.179381 793.8381 649.179381 779.450415L649.179381 724.355125 701.692203 724.355125 701.692203 779.450415C701.692203 823.013393 666.38105 858.408423 622.925796 858.408423L418.40134 858.408423C374.724427 858.408423 339.634933 823.049196 339.634933 779.278223L339.634933 730.689199 392.147755 730.689199 392.147755 779.278223Z"  horiz-adv-x="1024" />

    
    <glyph glyph-name="edit" unicode="&#59038;" d="M34.155089 665.059773 9.17948 665.059773 9.17948 639.796614 9.17948 41.841988C9.17948-27.769568 65.248004-84.289737 134.081773-84.289737L927.938515-84.289737 952.914125-84.289737 952.914125-59.026579 952.914125 424.899439C952.914125 438.851895 941.732164 450.162598 927.938515 450.162598 914.144868 450.162598 902.962906 438.851895 902.962906 424.899439L902.962906-59.026579 927.938515-33.76342 134.081773-33.76342C92.797081-33.76342 59.130699 0.174153 59.130699 41.841988L59.130699 639.796614 34.155089 614.533457 598.93821 614.533457C612.731859 614.533457 623.91382 625.844158 623.91382 639.796614 623.91382 653.749072 612.731859 665.059773 598.93821 665.059773L34.155089 665.059773ZM437.016339 302.496211 431.876019 295.895108 431.668623 287.494786 427.984924 138.290259 427.077935 101.553579 461.312335 113.853545 605.005395 165.480553 611.980762 167.986709 616.479561 173.932757 1003.181673 685.035772 1018.529978 705.321579 998.306108 720.620695 869.49174 818.067219 849.985487 832.823464 834.913446 813.46823 437.016339 302.496211ZM839.575373 777.604982 968.389739 680.158458 963.514174 715.743381 576.81206 204.640367 588.286225 213.092572 444.593165 161.465564 477.920574 137.028849 481.604275 286.233378 476.256559 271.231953 874.153664 782.20397 839.575373 777.604982ZM891.217762 585.494287 920.474916 626.446748 808.309143 708.435734 779.051989 667.483275 891.217762 585.494287Z"  horiz-adv-x="1024" />

    
    <glyph glyph-name="email" unicode="&#59039;" d="M972.8-38.274509 998.4-12.54902 127.868001-12.54902C85.502225-12.54902 51.2 21.980294 51.2 64.736983L51.2 784.941177 25.6 759.215686 896.131998 759.215686C938.452011 759.215686 972.8 724.675722 972.8 682.139066L972.8 617.433306C972.8 603.22551 984.26151 591.707817 998.4 591.707817 1012.53849 591.707817 1024 603.22551 1024 617.433306L1024 682.139066C1024 753.083444 966.736828 810.666667 896.131998 810.666667L25.6 810.666667 0 810.666667 0 784.941177 0 64.736983C0-6.415639 57.205646-64 127.868001-64L998.4-64 1024-64 1024-38.274509 1024 438.30151C1024 452.509306 1012.53849 464.026999 998.4 464.026999 984.26151 464.026999 972.8 452.509306 972.8 438.30151L972.8-38.274509ZM512.651558 328.835183C520.64791 323.125502 531.187889 322.509594 539.788919 327.249399L1002.624789 582.306306C1015.021598 589.137867 1019.560139 604.774804 1012.761901 617.232381 1005.963665 629.689959 990.403006 634.250746 978.006197 627.419184L515.170327 372.362278 542.307689 370.776495 194.028065 619.460533C182.502788 627.689991 166.520953 624.972402 158.331639 613.390628 150.142325 601.808854 152.846657 585.748678 164.371935 577.519219L512.651558 328.835183Z"  horiz-adv-x="1024" />

    
    <glyph glyph-name="favorite" unicode="&#59040;" d="M471.864 811.902c13.811 30.163 21.181 30.093 34.224-0.246l113.657-264.368c5.418-12.603 20.222-18.509 33.066-13.193 12.844 5.316 18.863 19.843 13.445 32.445l-113.657 264.368c-30.206 70.26-94.92 70.878-126.782 1.293l-119.214-260.358c-5.713-12.477-0.036-27.135 12.679-32.741 12.715-5.606 27.654-0.036 33.367 12.441l119.214 260.358zM946.329 487.517c33.504-3.568 35.713-10.467 10.338-32.014l-221.116-187.76c-10.541-8.951-11.691-24.591-2.569-34.934 9.122-10.343 25.062-11.472 35.602-2.521l221.116 187.76c58.765 49.9 39.366 110.483-37.925 118.713l-289.19 30.796c-13.858 1.476-26.312-8.351-27.816-21.95-1.504-13.598 8.511-25.818 22.37-27.294l289.19-30.796zM789.292-62.035c6.895-32.368 0.891-36.562-27.835-19.54l-250.315 148.326c-11.933 7.071-27.448 3.311-34.654-8.398-7.206-11.709-3.374-26.933 8.558-34.003l250.315-148.326c66.525-39.42 119.25-2.596 103.343 72.076l-59.516 279.391c-2.852 13.389-16.226 21.974-29.87 19.175-13.645-2.799-22.394-15.921-19.542-29.31l59.516-279.391zM232.774-79.365c-29.242-16.437-35.162-12.129-27.541 19.938l66.413 279.431c3.166 13.321-5.273 26.638-18.848 29.744-13.575 3.107-27.147-5.174-30.313-18.494l-66.413-279.431c-17.65-74.263 34.334-112.087 101.794-74.168l252.408 141.877c12.096 6.799 16.284 21.932 9.355 33.801-6.929 11.869-22.352 15.979-34.447 9.18l-252.408-141.877zM129.994 382.712c-47.892 42.601-47.892 42.601-87.801 78.102-10.328 9.187-26.29 8.419-35.652-1.715-9.363-10.134-8.58-25.796 1.747-34.983 39.91-35.501 39.91-35.501 87.801-78.102l127.711-113.604c10.328-9.187 26.29-8.419 35.652 1.715 9.363 10.134 8.58 25.796-1.748 34.983-31.928 28.401-31.928 28.401-127.711 113.604zM180.395 501.737c9.971 0.995 20.266 2.053 30.828 3.164 25.45 2.678 51.3 5.546 76.212 8.415 8.72 1.004 16.7 1.936 23.775 2.773 4.251 0.503 7.25 0.862 8.857 1.056 13.835 1.672 23.67 14.032 21.966 27.608-1.704 13.576-14.3 23.226-28.136 21.554-1.549-0.187-4.524-0.543-8.731-1.041-7.023-0.831-14.95-1.757-23.614-2.755-24.756-2.85-50.444-5.701-75.712-8.36-10.473-1.102-20.677-2.15-30.553-3.136-20.542-2.05-39.363-3.801-56.079-5.2-13.889-1.162-24.189-13.152-23.005-26.781 1.184-13.629 13.403-23.735 27.293-22.573 17.016 1.423 36.103 3.199 56.9 5.275z"  horiz-adv-x="1024" />

    
    <glyph glyph-name="form" unicode="&#59042;" d="M835.55027 847.238095C876.805122 847.238095 910.222223 814.558842 910.222223 774.246396L910.222223 61.033572 917.178886 77.94089 755.401109-86.711731 773.333333-79.238095 188.412988-79.238095C147.247907-79.238095 113.777778-46.409011 113.777778-6.094615L113.777778 871.619048 88.888889 847.238095 835.55027 847.238095ZM64 896 64 871.619048 64-6.094615C64-73.325498 119.742117-128 188.412988-128L773.333333-128 783.922411-128 791.265557-120.526364 953.043334 44.126255 960 51.206543 960 61.033572 960 774.246396C960 841.50796 904.277615 896 835.55027 896L88.888889 896 64 896ZM736.080945 188.952382C694.76038 188.952382 661.333333 156.380621 661.333333 115.855814L661.333333-30.47619C661.333333-43.941419 672.476469-54.857143 686.222223-54.857143 699.967977-54.857143 711.11111-43.941419 711.11111-30.47619L711.11111 115.855814C711.11111 129.392139 722.192996 140.190477 736.080945 140.190477L848 140.190477C861.745754 140.190477 872.88889 151.106199 872.88889 164.571428 872.88889 178.036657 861.745754 188.952382 848 188.952382L736.080945 188.952382ZM775.164361 676.571428C788.910114 676.571428 800.05325 687.487153 800.05325 700.952381 800.05325 714.417609 788.910114 725.333333 775.164361 725.333333L263.111111 725.333333C249.365357 725.333333 238.222222 714.417609 238.222222 700.952381 238.222222 687.487153 249.365357 676.571428 263.111111 676.571428L775.164361 676.571428ZM775.164361 530.285715C788.910114 530.285715 800.05325 541.201438 800.05325 554.666667 800.05325 568.131895 788.910114 579.047618 775.164361 579.047618L263.111111 579.047618C249.365357 579.047618 238.222222 568.131895 238.222222 554.666667 238.222222 541.201438 249.365357 530.285715 263.111111 530.285715L775.164361 530.285715ZM775.164361 359.619049C788.910114 359.619049 800.05325 370.534771 800.05325 384 800.05325 397.465229 788.910114 408.380951 775.164361 408.380951L263.111111 408.380951C249.365357 408.380951 238.222222 397.465229 238.222222 384 238.222222 370.534771 249.365357 359.619049 263.111111 359.619049L775.164361 359.619049Z"  horiz-adv-x="1024" />

    
    <glyph glyph-name="help" unicode="&#59043;" d="M1024 384C1024 666.769792 794.769792 896 512 896 229.230208 896 0 666.769792 0 384 0 101.230208 229.230208-128 512-128 629.410831-128 740.826187-88.331046 830.768465-16.686662 841.557579-8.092491 843.33693 7.620766 834.742758 18.409879 826.148587 29.198991 810.43533 30.978342 799.646219 22.384173 718.470035-42.277495 618.001779-78.048781 512-78.048781 256.817504-78.048781 49.951219 128.817504 49.951219 384 49.951219 639.182496 256.817504 846.048781 512 846.048781 767.182496 846.048781 974.048781 639.182496 974.048781 384 974.048781 296.507166 949.714859 212.663236 904.470807 140.039307 897.177109 128.331757 900.755245 112.928203 912.462793 105.634507 924.170342 98.340809 939.573897 101.918942 946.867595 113.626492 997.013826 194.119204 1024 287.101621 1024 384ZM533.078812 204.581444C551.918022 204.581444 567.190219 189.326048 567.190219 170.488614L567.190219 161.458272C567.190219 142.629323 552.049365 127.365442 533.078812 127.365442L533.078812 127.365442C514.239601 127.365442 498.967405 142.620838 498.967405 161.458272L498.967405 170.488614C498.967405 189.317564 514.108258 204.581444 533.078812 204.581444L533.078812 204.581444ZM374.634146 477.345015C374.634146 477.345015 377.308518 453.789391 403.631972 453.789391 429.955424 453.789391 431.511799 477.345015 431.511799 477.345015 429.767552 553.619347 465.107535 589.837662 537.45591 586.239814 585.612324 580.80307 610.562654 553.619347 612.231066 504.608691 608.894242 482.78176 590.617557 454.558658 558.083539 420.09929 515.008196 376.52538 493.470524 337.50874 493.470524 303.049374L493.470524 267.710532C493.470524 267.710532 496.775846 246.634133 520.582206 246.634133 544.388565 246.634133 547.693888 267.710532 547.693888 267.710532L547.693888 292.255836C547.693888 321.038603 568.321517 355.657875 609.652612 395.71389 652.879629 435.530052 674.341463 471.908271 674.341463 504.608691 670.777131 595.274406 623.530758 642.526114 532.223166 646.203913 427.189099 647.962859 374.634146 591.676561 374.634146 477.345015Z"  horiz-adv-x="1024" />

    
    <glyph glyph-name="information" unicode="&#59044;" d="M1024 384C1024 666.769792 794.769792 896 512 896 229.230208 896 0 666.769792 0 384 0 101.230208 229.230208-128 512-128 629.410831-128 740.826187-88.331046 830.768465-16.686662 841.557579-8.092491 843.33693 7.620766 834.742758 18.409879 826.148587 29.198991 810.43533 30.978342 799.646219 22.384173 718.470035-42.277495 618.001779-78.048781 512-78.048781 256.817504-78.048781 49.951219 128.817504 49.951219 384 49.951219 639.182496 256.817504 846.048781 512 846.048781 767.182496 846.048781 974.048781 639.182496 974.048781 384 974.048781 296.507166 949.714859 212.663236 904.470807 140.039307 897.177109 128.331757 900.755245 112.928203 912.462793 105.634507 924.170342 98.340809 939.573897 101.918942 946.867595 113.626492 997.013826 194.119204 1024 287.101621 1024 384ZM499.512194 152.97561C499.512194 139.181961 510.694157 128 524.487806 128 538.281453 128 549.463415 139.181961 549.463415 152.97561L549.463415 471.414635C549.463415 485.208282 538.281453 496.390244 524.487806 496.390244 510.694157 496.390244 499.512194 485.208282 499.512194 471.414635L499.512194 152.97561ZM499.512194 577.560975C499.512194 563.767328 510.694157 552.585365 524.487806 552.585365 538.281453 552.585365 549.463415 563.767328 549.463415 577.560975L549.463415 621.268292C549.463415 635.061941 538.281453 646.243902 524.487806 646.243902 510.694157 646.243902 499.512194 635.061941 499.512194 621.268292L499.512194 577.560975Z"  horiz-adv-x="1024" />

    
    <glyph glyph-name="less" unicode="&#59045;" d="M509.927514 508.840919C517.168621 516.831106 527.507586 516.737553 534.709532 508.506756L805.278364 199.285235C813.036915 190.418321 826.514517 189.519814 835.381431 197.278364 844.248346 205.036915 845.146852 218.514517 837.388303 227.381431L566.819471 536.602955C542.819471 564.031526 502.692194 564.39462 478.31207 537.492414L197.525612 227.659081C189.61372 218.928717 190.277222 205.437504 199.007586 197.525611 207.737949 189.613719 221.229163 190.277222 229.141056 199.007586L509.927514 508.840919Z"  horiz-adv-x="1024" />

    
    <glyph glyph-name="moreunfold" unicode="&#59046;" d="M478.31207 251.840919C502.692194 224.938714 542.819471 225.301807 566.819471 252.730379L837.388303 561.951902C845.146852 570.818816 844.248346 584.296418 835.381431 592.05497 826.514517 599.813519 813.036915 598.915012 805.278364 590.048098L534.709532 280.826577C527.507586 272.59578 517.168621 272.502227 509.927514 280.492414L229.141056 590.325747C221.229163 599.056111 207.737949 599.719614 199.007586 591.807723 190.277222 583.895829 189.61372 570.404617 197.525612 561.674253L478.31207 251.840919Z"  horiz-adv-x="1024" />

    
    <glyph glyph-name="more" unicode="&#59047;" d="M642.174253 391.40582C650.164439 384.164713 650.070886 373.825747 641.84009 366.623802L332.618569 96.05497C323.751654 88.296418 322.853148 74.818816 330.611697 65.951902 338.370249 57.084988 351.847851 56.186481 360.714765 63.94503L669.936288 334.513862C697.36486 358.513862 697.727953 398.641139 670.825747 423.021263L360.992414 703.807722C352.26205 711.719614 338.770837 711.056111 330.858944 702.325748 322.947053 693.595384 323.610556 680.104171 332.340919 672.192277L642.174253 391.40582Z"  horiz-adv-x="1024" />

    
    <glyph glyph-name="pic" unicode="&#59048;" d="M475.224371 320.207494 440.035586 316.135275 667.59114 171.619147 683.870889 161.280194 699.396883 172.75395 1012.285773 403.979757 1024 412.636606 1024 427.354839 1024 687.295869C1024 767.194039 960.311036 832 881.771738 832L28.444444 832 0 832 0 803.096774 0 80.570423C0 0.738618 63.696326-64 142.228263-64L995.555556-64 1024-64 1024-35.096774 1024 225.032258C1024 240.99507 1011.264988 253.935484 995.555556 253.935484 979.846123 253.935484 967.11111 240.99507 967.11111 225.032258L967.11111-35.096774 995.555556-6.193549 142.228263-6.193549C95.11813-6.193549 56.888889 32.661254 56.888889 80.570423L56.888889 803.096774 28.444444 774.193548 881.771738 774.193548C928.874507 774.193548 967.11111 735.286338 967.11111 687.295869L967.11111 427.354839 978.825338 450.72992 665.93645 219.504113 697.742193 220.638918 470.186637 365.155049 450.998204 377.34125 434.997852 361.082829 207.442296 129.857022C196.334049 118.569611 196.334049 100.269099 207.442296 88.981687 218.550543 77.694276 236.56057 77.694276 247.668815 88.981687L475.224371 320.207494ZM341.333333 557.419356C341.333333 613.289193 296.760794 658.580645 241.777777 658.580645 186.794763 658.580645 142.222222 613.289193 142.222222 557.419356 142.222222 501.549517 186.794763 456.258065 241.777777 456.258065 296.760794 456.258065 341.333333 501.549517 341.333333 557.419356ZM199.111111 557.419356C199.111111 581.363571 218.213628 600.774193 241.777777 600.774193 265.341926 600.774193 284.444444 581.363571 284.444444 557.419356 284.444444 533.475138 265.341926 514.064516 241.777777 514.064516 218.213628 514.064516 199.111111 533.475138 199.111111 557.419356Z"  horiz-adv-x="1024" />

    
    <glyph glyph-name="qrcode" unicode="&#59049;" d="M390.095238 825.756097 365.714285 850.211382 365.714285 507.837397 390.095238 532.292683 48.761905 532.292683 73.142857 507.837397 73.142857 850.211382 48.761905 825.756097 390.095238 825.756097ZM24.380952 874.666667 24.380952 850.211382 24.380952 507.837397 24.380952 483.382114 48.761905 483.382114 390.095238 483.382114 414.47619 483.382114 414.47619 507.837397 414.47619 850.211382 414.47619 874.666667 390.095238 874.666667 48.761905 874.666667 24.380952 874.666667ZM390.095238 238.829269 365.714285 263.284553 365.714285-79.089431 390.095238-54.634146 97.666649-54.634146C84.112298-54.634146 73.142857-43.635025 73.142857-30.035586L73.142857 263.284553 48.761905 238.829269 390.095238 238.829269ZM24.380952 287.739838 24.380952 263.284553 24.380952-30.035586C24.380952-70.651334 57.185576-103.544715 97.666649-103.544715L390.095238-103.544715 414.47619-103.544715 414.47619-79.089431 414.47619 263.284553 414.47619 287.739838 390.095238 287.739838 48.761905 287.739838 24.380952 287.739838ZM926.33335 825.756097C939.887701 825.756097 950.857143 814.756977 950.857143 801.157538L950.857143 507.837397 975.238095 532.292683 633.904762 532.292683 658.285715 507.837397 658.285715 850.211382 633.904762 825.756097 926.33335 825.756097ZM609.52381 874.666667 609.52381 850.211382 609.52381 507.837397 609.52381 483.382114 633.904762 483.382114 975.238095 483.382114 999.619049 483.382114 999.619049 507.837397 999.619049 801.157538C999.619049 841.773285 966.814423 874.666667 926.33335 874.666667L633.904762 874.666667 609.52381 874.666667ZM975.238095 238.829269 950.857143 263.284553 950.857143-79.089431 975.238095-54.634146 633.904762-54.634146 658.285715-79.089431 658.285715 263.284553 633.904762 238.829269 975.238095 238.829269ZM609.52381 287.739838 609.52381 263.284553 609.52381-79.089431 609.52381-103.544715 633.904762-103.544715 975.238095-103.544715 999.619049-103.544715 999.619049-79.089431 999.619049 263.284553 999.619049 287.739838 975.238095 287.739838 633.904762 287.739838 609.52381 287.739838ZM487.619049 507.559642C487.619049 494.053361 498.534771 483.104356 512 483.104356 525.465229 483.104356 536.380951 494.053361 536.380951 507.559642L536.380951 776.845529C536.380951 790.351809 525.465229 801.300813 512 801.300813 498.534771 801.300813 487.619049 790.351809 487.619049 776.845529L487.619049 507.559642ZM585.142857 214.628617C585.142857 228.134897 574.227134 239.0839 560.761905 239.0839 547.296676 239.0839 536.380951 228.134897 536.380951 214.628617L536.380951-79.089431C536.380951-92.595712 547.296676-103.544715 560.761905-103.544715 574.227134-103.544715 585.142857-92.595712 585.142857-79.089431L585.142857 214.628617ZM487.619049 116.552845C487.619049 130.059125 476.703324 141.00813 463.238095 141.00813 449.772866 141.00813 438.857143 130.059125 438.857143 116.552845L438.857143-79.089431C438.857143-92.595712 449.772866-103.544715 463.238095-103.544715 476.703324-103.544715 487.619049-92.595712 487.619049-79.089431L487.619049 116.552845ZM999.619049 361.105692C1013.084275 361.105692 1024 372.054694 1024 385.560975 1024 399.067255 1013.084275 410.01626 999.619049 410.01626L24.380952 410.01626C10.915724 410.01626 0 399.067255 0 385.560975 0 372.054694 10.915724 361.105692 24.380952 361.105692L999.619049 361.105692Z"  horiz-adv-x="1024" />

    
    <glyph glyph-name="refresh" unicode="&#59050;" d="M512 896C229.230208 896 0 666.769792 0 384 0 101.230208 229.230208-128 512-128 761.325865-128 973.201958 51.440486 1016.153097 294.235322 1018.151127 305.529818 1019.771663 316.910818 1021.010022 328.364361 1022.492753 342.078084 1012.577574 354.397246 998.863851 355.879979 985.150125 357.362709 972.830963 347.447531 971.348233 333.733807 970.230573 323.396631 968.768273 313.126908 966.965602 302.936738 928.217702 83.902033 736.992706-78.048781 512-78.048781 256.817504-78.048781 49.951219 128.817504 49.951219 384 49.951219 639.182496 256.817504 846.048781 512 846.048781 698.044361 846.048781 863.703281 735.083433 936.293348 567.2457 941.768939 554.585421 956.470965 548.761079 969.131243 554.236668 981.791522 559.712258 987.615863 574.414283 982.140273 587.074562 901.710383 773.038993 718.143277 896 512 896ZM958.442797 545.753446 983.418406 570.729056 724.292683 570.729056C710.499034 570.729056 699.317073 559.547093 699.317073 545.753446 699.317073 531.959797 710.499034 520.777837 724.292683 520.777837L983.418406 520.777837C997.212055 520.777837 1008.394016 531.959797 1008.394016 545.753446L1008.394016 821.073171C1008.394016 834.866819 997.212055 846.048781 983.418406 846.048781 969.624757 846.048781 958.442797 834.866819 958.442797 821.073171L958.442797 545.753446Z"  horiz-adv-x="1024" />

    
    <glyph glyph-name="search" unicode="&#59052;" d="M1001.526404-95.699618C999.922771-90.822379 999.922771-90.822379 998.661741-88.531443 997.556333-86.547938 996.293839-84.724943 994.702325-82.653549 992.500075-79.787264 989.423708-76.169135 985.358477-71.619563 978.223881-63.634933 967.82403-52.546074 954.04227-38.18551 932.495573-15.733901 910.909628 6.315748 858.479859 59.608002 806.561909 112.380015 784.782022 134.629598 763.425645 156.886537 750.035742 170.841067 739.986204 181.558483 733.331893 189.006633 730.0273 192.705455 727.65239 195.498419 726.365602 197.171678 727.222236 195.561131 727.222236 195.561131 728.57702 191.58121 730.685899 184.086517 730.685899 184.086517 721.610157 166.825982 803.853596 246.08394 851.33145 356.012949 851.33145 473.600226 851.33145 706.88518 665.530044 896 436.332393 896 207.134741 896 21.333333 706.88518 21.333333 473.600226 21.333333 240.315273 207.134741 51.200452 436.332393 51.200452 441.356706 51.200452 446.556279 51.43584 452.347883 51.88233 456.487002 52.201425 460.079727 52.545845 466.651669 53.223196 479.958906 54.594731 484.804847 54.985431 490.397372 54.985442 499.896397 54.985459 514.964663 58.353071 537.39015 64.570334 540.021178 65.299761 542.719546 66.061295 545.476431 66.851597 553.976567 69.288288 562.667765 71.891529 571.097184 74.494202 576.160226 76.057472 580.026436 77.278086 582.233225 77.986769 595.480279 82.240892 602.830912 96.619906 598.651326 110.103196 594.471738 123.586485 580.344653 131.068205 567.097598 126.81408 565.058735 126.159326 561.367413 124.993926 556.494825 123.489461 548.364858 120.979245 539.986116 118.469596 531.839533 116.134255 529.217662 115.382658 526.657771 114.660205 524.170112 113.970524 506.936476 109.192655 493.480702 106.185421 490.397278 106.185414 482.458716 106.185399 476.720548 105.722765 461.583853 104.162671 455.416051 103.526976 452.140828 103.212992 448.548723 102.936068 443.933724 102.580286 439.960704 102.400425 436.332393 102.400425 234.916275 102.400425 71.63625 268.592237 71.63625 473.600226 71.63625 678.608215 234.916275 844.800027 436.332393 844.800027 637.74851 844.800027 801.028533 678.608215 801.028533 473.600226 801.028533 370.224557 759.336083 273.690923 687.025254 204.005013 677.769918 186.436971 677.769918 186.436971 679.976768 178.37293 681.566101 173.694818 681.566101 173.694818 682.808947 171.449702 683.910231 169.488343 685.170219 167.673308 686.754421 165.613308 688.964348 162.739657 692.047349 159.113956 696.115554 154.560425 703.261474 146.562018 713.66454 135.467582 727.438434 121.112866 749.001325 98.640706 770.84669 76.324235 822.916311 23.398054 875.194278-29.7399 896.716879-51.724843 918.057933-73.962174 931.455439-87.922347 941.502012-98.634524 948.144469-106.068378 951.440527-109.757135 953.805218-112.538259 955.077419-114.194061 954.139053-112.441707 954.139053-112.441707 952.75811-108.249822 950.686453-100.172693 950.686453-100.172693 960.850534-82.849743 950.24269-91.977788 948.913429-108.130236 957.881542-118.927251 966.849655-129.724265 982.719104-131.077231 993.326948-121.949188 1003.683753-104.332838 1003.683753-104.332838 1001.526404-95.699618Z"  horiz-adv-x="1024" />

    
    <glyph glyph-name="selected" unicode="&#59053;" d="M464.247574 218.512156C474.214622 209.350991 489.665824 209.798411 499.086059 219.520971L798.905035 528.962102C808.503379 538.868489 808.253662 554.680199 798.347275 564.278544 788.44089 573.87689 772.62918 573.627172 763.030833 563.720785L463.211858 254.279654 498.050342 255.288469 316.608839 422.059538C306.453341 431.393915 290.653676 430.728264 281.319299 420.572766 271.984922 410.417267 272.650573 394.617602 282.806071 385.283225L464.247574 218.512156Z"  horiz-adv-x="1024" />

    
    <glyph glyph-name="set" unicode="&#59054;" d="M825.606018 248.461717 819.263571 235.741545 827.207981 223.95529 905.327294 108.058193 908.52362 139.141679 769.540324 3.626127 799.04025 7.115004 671.47766 83.116681 660.919793 89.407046 649.583401 84.661163C641.524386 81.287326 633.321491 78.204958 625.041941 75.439663L611.811631 71.020858 608.915804 57.376038 580.996546-74.176486 604.846304-54.857143 408.272431-54.857141 431.938677-73.378097 397.841517 64.327061 394.800523 76.608452 383.007648 81.191938C375.650317 84.051482 368.359849 87.170722 361.19018 90.526543L349.017562 96.224034 337.701214 88.973216 217.88134 12.200015 248.055031 9.128335 109.071736 144.636279 112.710251 114.231712 190.651237 238.590583 197.546671 249.592606 192.26576 261.454455C188.597667 269.693634 185.255827 278.10566 182.266902 286.622118L177.674889 299.706315 164.082002 302.447895 29.201333 329.652282 48.761905 305.752599 48.761905 497.40253 29.96636 473.669978 171.221091 506.913988 183.450436 509.792139 188.204044 521.421577C191.634415 529.81379 195.421037 538.096149 199.530538 546.196672L205.959792 558.869818 198.101254 570.70989 124.686421 681.320416 121.526273 650.511849 259.687038 787.298784 229.912147 783.764797 352.693357 709.475686 363.287226 703.065837 374.712497 707.838612C381.330477 710.603196 388.053308 713.173769 394.835279 715.53319L407.314641 719.87471 410.490432 732.700371 443.437389 865.758996 419.771153 847.238095 616.327194 847.238095 592.477417 866.557526 621.325088 730.62796 624.105103 717.528597 636.651202 712.847021C646.841886 709.044368 656.865493 704.767605 666.627682 700.056896L678.796045 694.185096 690.225485 701.390303 803.674639 772.909532 773.791902 775.942467 914.162801 641.245167 910.479401 671.93453 834.210227 552.18633 827.217813 541.207727 832.449542 529.289143C836.047972 521.091433 839.325363 512.718893 842.252943 504.24713L846.63933 491.553911 859.712006 488.47766 994.034289 456.869065 975.238095 480.601771 975.238095 288.95184 994.798163 312.85142 852.982818 284.24525 840.250379 281.676937 835.279123 269.677026C832.31875 262.531102 829.086927 255.442899 825.606018 248.461717ZM857.803703 260.34567 862.624587 236.446091 1004.439932 265.05226 1024 268.997805 1024 288.95184 1024 480.601771 1024 499.911373 1005.203806 504.334475 870.881523 535.943072 865.296766 512.210366 888.340587 520.173602C884.98377 529.887479 881.22675 539.485301 877.099219 548.888369L854.774381 539.088755 875.338534 525.991181 951.607706 645.739381 962.34231 662.593495 947.924307 676.428745 807.553406 811.126044 793.797813 824.325656 777.670669 814.158979 664.221513 742.63975 677.223499 722.015027 687.819315 743.973158C676.702449 749.337561 665.295885 754.20439 653.698526 758.531943L645.174865 735.689482 669.02464 740.751004 640.176969 876.68057 636.0769 896 616.327194 896 419.771153 896 400.690923 896 396.104919 877.479099 363.157965 744.420473 386.824198 738.560422 378.813118 761.587654C371.096704 758.903145 363.448934 755.978908 355.916838 752.832462L365.314667 730.335537 377.935979 751.195387 255.154767 825.484498 238.88953 835.325826 225.379878 821.950511 87.219113 685.163575 72.972426 671.058551 84.058966 654.355008 157.473798 543.744482 177.787526 557.227187 156.044514 568.257702C151.336434 558.97728 146.99905 549.490257 143.067323 539.871503L165.635683 530.646541 160.050276 554.379093 18.795545 521.135083 0 516.71159 0 497.40253 0 305.752599 0 285.798133 19.560572 281.852917 154.441241 254.648533 159.261622 278.548213 136.256342 270.47431C139.682853 260.711021 143.513008 251.069818 147.71909 241.622221L169.992425 251.538338 149.333613 264.486093 71.392628 140.127221 60.94464 123.456915 75.031143 109.722652 214.014438-25.785293 227.881289-39.305393 244.18813-28.856971 364.008004 47.91623 350.854609 68.444723 340.519036 46.362903C348.675428 42.545237 356.968563 38.997003 365.342891 35.742189L374.17527 58.467063 350.509022 52.607068 384.606182-85.098091 389.192156-103.619046 408.272431-103.619046 604.846304-103.619049 624.595936-103.619049 628.696062-84.299706 656.615319 47.252817 632.765562 52.314428 640.489184 29.189193C649.912247 32.336412 659.243565 35.842801 668.413638 39.681773L658.998519 62.171469 646.519381 41.226255 774.081971-34.775422 790.172006-44.36185 803.581897-31.286545 942.565193 104.229005 957.136469 118.436719 945.761519 135.312491 867.642208 251.209587 847.425094 237.582438 869.244171 226.703159C873.230259 234.697506 876.932843 242.818202 880.328282 251.014315L857.803703 260.34567ZM731.428572 396.190477C731.428572 510.644915 638.644915 603.428572 524.190477 603.428572 409.736036 603.428572 316.952382 510.644915 316.952382 396.190477 316.952382 281.736036 409.736036 188.952382 524.190477 188.952382 553.504879 188.952382 582.005801 195.057111 608.253005 206.71738 620.558583 212.184111 626.102566 226.591411 620.635836 238.89699 615.169107 251.202566 600.761807 256.746549 588.456228 251.279821 568.411953 242.375189 546.651767 237.714285 524.190477 237.714285 436.666494 237.714285 365.714285 308.666494 365.714285 396.190477 365.714285 483.71446 436.666494 554.666667 524.190477 554.666667 611.71446 554.666667 682.666667 483.71446 682.666667 396.190477 682.666667 384.625745 681.431994 373.2376 679.007782 362.152755 676.130985 348.998426 684.462569 336.002626 697.616898 333.125828 710.77123 330.24903 723.767027 338.580614 726.643825 351.734944 729.815238 366.236418 731.428572 381.117165 731.428572 396.190477Z"  horiz-adv-x="1024" />

    
    <glyph glyph-name="success" unicode="&#59057;" d="M464.247573 218.512156C474.214622 209.350991 489.665824 209.798411 499.086059 219.520971L798.905035 528.962103C808.503379 538.868489 808.253662 554.680198 798.347275 564.278545 788.44089 573.87689 772.62918 573.627172 763.030833 563.720785L463.211857 254.279654 498.050342 255.288469 316.608838 422.059539C306.453342 431.393916 290.653675 430.728265 281.319298 420.572766 271.984922 410.417267 272.650573 394.617602 282.806071 385.283226L464.247573 218.512156ZM1024 384C1024 666.769792 794.769792 896 512 896 229.230208 896 0 666.769792 0 384 0 101.230208 229.230208-128 512-128 629.410831-128 740.826187-88.331046 830.768465-16.686662 841.557579-8.092491 843.33693 7.620766 834.742758 18.409879 826.148587 29.198991 810.43533 30.978342 799.646219 22.384173 718.470035-42.277495 618.001779-78.048781 512-78.048781 256.817504-78.048781 49.951219 128.817504 49.951219 384 49.951219 639.182496 256.817504 846.048781 512 846.048781 767.182496 846.048781 974.048781 639.182496 974.048781 384 974.048781 296.507166 949.714859 212.663236 904.470807 140.039307 897.177109 128.331757 900.755245 112.928203 912.462793 105.634507 924.170342 98.340809 939.573897 101.918942 946.867595 113.626492 997.013826 194.119204 1024 287.101621 1024 384Z"  horiz-adv-x="1024" />

    
    <glyph glyph-name="viewgallery" unicode="&#59060;" d="M147.04975 846.048781 348.539994 846.048781C390.229001 846.048781 423.931625 812.54407 423.931625 770.941234L423.931625 546.52218C423.931625 505.022859 390.167209 471.414635 348.539994 471.414635L147.04975 471.414635C105.360742 471.414635 71.65812 504.919345 71.65812 546.52218L71.65812 770.941234C71.65812 812.440555 105.422534 846.048781 147.04975 846.048781ZM21.333333 546.52218C21.333333 477.349489 77.549527 421.463415 147.04975 421.463415L348.539994 421.463415C417.992574 421.463415 474.25641 477.466982 474.25641 546.52218L474.25641 770.941234C474.25641 840.113925 418.040215 896 348.539994 896L147.04975 896C77.597169 896 21.333333 839.996433 21.333333 770.941234L21.333333 546.52218ZM675.460006 846.048781 876.950251 846.048781C918.639258 846.048781 952.341879 812.54407 952.341879 770.941234L952.341879 546.52218C952.341879 505.022859 918.577466 471.414635 876.950251 471.414635L675.460006 471.414635C633.770999 471.414635 600.068375 504.919345 600.068375 546.52218L600.068375 770.941234C600.068375 812.440555 633.832791 846.048781 675.460006 846.048781ZM549.74359 546.52218C549.74359 477.349489 605.959785 421.463415 675.460006 421.463415L876.950251 421.463415C946.402831 421.463415 1002.666667 477.466982 1002.666667 546.52218L1002.666667 770.941234C1002.666667 840.113925 946.450473 896 876.950251 896L675.460006 896C606.007426 896 549.74359 839.996433 549.74359 770.941234L549.74359 546.52218ZM147.04975 296.585365 348.539994 296.585365C390.229001 296.585365 423.931625 263.080655 423.931625 221.47782L423.931625-2.941233C423.931625-44.440555 390.167209-78.048781 348.539994-78.048781L147.04975-78.048781C105.360742-78.048781 71.65812-44.54407 71.65812-2.941233L71.65812 221.47782C71.65812 262.977141 105.422534 296.585365 147.04975 296.585365ZM21.333333-2.941233C21.333333-72.113924 77.549527-128 147.04975-128L348.539994-128C417.992574-128 474.25641-71.996433 474.25641-2.941233L474.25641 221.47782C474.25641 290.650511 418.040215 346.536585 348.539994 346.536585L147.04975 346.536585C77.597169 346.536585 21.333333 290.533018 21.333333 221.47782L21.333333-2.941233ZM874.686701-78.048781 868.289711-78.048781 845.457374-78.048781 776.173041-78.048781 675.395834-78.048781C633.745909-78.048781 600.068375-44.547631 600.068375-2.941233L600.068375 221.47782C600.068375 262.977141 633.832791 296.585365 675.460006 296.585365L876.950251 296.585365C918.642281 296.585365 952.341879 263.11607 952.341879 221.579471L952.341879 26.978142 952.341879-3.065886C952.341879-16.859535 963.607467-28.041495 977.504273-28.041495 991.401079-28.041495 1002.666667-16.859535 1002.666667-3.065886L1002.666667 26.978142 1002.666667 221.579471C1002.666667 290.696734 946.442579 346.536585 876.950251 346.536585L675.460006 346.536585C606.007426 346.536585 549.74359 290.533018 549.74359 221.47782L549.74359-2.941233C549.74359-72.110364 605.927488-128 675.395834-128L776.173041-128 845.457374-128 868.289711-128 874.686701-128 876.37206-128C890.847055-128 902.112642-116.818039 902.112642-103.02439 902.112642-89.230741 890.847055-78.048781 876.950251-78.048781L874.686701-78.048781Z"  horiz-adv-x="1024" />

    
    <glyph glyph-name="viewlist" unicode="&#59061;" d="M146.571481 846.048781 347.295185 846.048781C388.825594 846.048781 422.4 812.54407 422.4 770.941234L422.4 546.52218C422.4 505.022859 388.764036 471.414635 347.295185 471.414635L146.571481 471.414635C105.041073 471.414635 71.466667 504.919345 71.466667 546.52218L71.466667 770.941234C71.466667 812.440555 105.10263 846.048781 146.571481 846.048781ZM21.333333 546.52218C21.333333 477.349489 77.335661 421.463415 146.571481 421.463415L347.295185 421.463415C416.483543 421.463415 472.533333 477.466982 472.533333 546.52218L472.533333 770.941234C472.533333 840.113925 416.531006 896 347.295185 896L146.571481 896C77.383122 896 21.333333 839.996433 21.333333 770.941234L21.333333 546.52218ZM146.571481 296.585365 347.295185 296.585365C388.825594 296.585365 422.4 263.080655 422.4 221.47782L422.4-2.941233C422.4-44.440555 388.764036-78.048781 347.295185-78.048781L146.571481-78.048781C105.041073-78.048781 71.466667-44.54407 71.466667-2.941233L71.466667 221.47782C71.466667 262.977141 105.10263 296.585365 146.571481 296.585365ZM21.333333-2.941233C21.333333-72.113924 77.335661-128 146.571481-128L347.295185-128C416.483543-128 472.533333-71.996433 472.533333-2.941233L472.533333 221.47782C472.533333 290.650511 416.531006 346.536585 347.295185 346.536585L146.571481 346.536585C77.383122 346.536585 21.333333 290.533018 21.333333 221.47782L21.333333-2.941233ZM998.933333 746.146342C1012.777271 746.146342 1024 757.328303 1024 771.121951 1024 784.9156 1012.777271 796.097561 998.933333 796.097561L572.8 796.097561C558.956062 796.097561 547.733333 784.9156 547.733333 771.121951 547.733333 757.328303 558.956062 746.146342 572.8 746.146342L998.933333 746.146342ZM998.933333 621.268292C1012.777271 621.268292 1024 632.450255 1024 646.243902 1024 660.037551 1012.777271 671.219511 998.933333 671.219511L572.8 671.219511C558.956062 671.219511 547.733333 660.037551 547.733333 646.243902 547.733333 632.450255 558.956062 621.268292 572.8 621.268292L998.933333 621.268292ZM998.933333 496.390244C1012.777271 496.390244 1024 507.572205 1024 521.365854 1024 535.159503 1012.777271 546.341463 998.933333 546.341463L572.8 546.341463C558.956062 546.341463 547.733333 535.159503 547.733333 521.365854 547.733333 507.572205 558.956062 496.390244 572.8 496.390244L998.933333 496.390244ZM998.933333 221.658537C1012.777271 221.658537 1024 232.840497 1024 246.634146 1024 260.427795 1012.777271 271.609756 998.933333 271.609756L572.8 271.609756C558.956062 271.609756 547.733333 260.427795 547.733333 246.634146 547.733333 232.840497 558.956062 221.658537 572.8 221.658537L998.933333 221.658537ZM998.933333 96.780489C1012.777271 96.780489 1024 107.962449 1024 121.756098 1024 135.549745 1012.777271 146.731708 998.933333 146.731708L572.8 146.731708C558.956062 146.731708 547.733333 135.549745 547.733333 121.756098 547.733333 107.962449 558.956062 96.780489 572.8 96.780489L998.933333 96.780489ZM998.933333-28.097562C1012.777271-28.097562 1024-16.915599 1024-3.121952 1024 10.671697 1012.777271 21.853658 998.933333 21.853658L572.8 21.853658C558.956062 21.853658 547.733333 10.671697 547.733333-3.121952 547.733333-16.915599 558.956062-28.097562 572.8-28.097562L998.933333-28.097562Z"  horiz-adv-x="1024" />

    
    <glyph glyph-name="warning" unicode="&#59062;" d="M598.272514 737.82091C545.018272 824.005964 451.264177 824.048599 397.724122 737.602659L25.049726 135.881414C-28.93569 48.716393 14.324655-31.325257 116.435565-33.308966L891.057077-33.313666C993.88467-35.315989 1036.926865 27.961741 983.25955 114.810306 980.374633 119.478901 980.374633 119.478901 971.719878 133.484687 967.393745 140.485568 967.393745 140.485568 963.78822 146.320305 956.511588 158.09591 941.113263 161.714133 929.3951 154.40183 917.676937 147.089527 914.076365 131.615721 921.352996 119.840115 924.958522 114.005378 924.958522 114.005378 929.284655 107.004497 937.939409 92.998711 937.939409 92.998711 940.824326 88.330116 972.284602 37.418686 957.441559 15.597451 891.539823 16.877724L116.918309 16.882423C54.037254 18.108704 33.95555 55.264503 67.458075 109.357783L440.132471 711.079029C474.112981 765.944069 522.112175 765.922241 556.029583 711.034491L857.08969 239.16029C864.534622 227.491405 879.98329 224.0968 891.595253 231.578227 903.207217 239.059657 906.585263 254.584051 899.140331 266.252937L598.272514 737.82091ZM474.536585 276.206654C474.536585 262.345389 485.718547 251.108614 499.512194 251.108614 513.305843 251.108614 524.487806 262.345389 524.487806 276.206654L524.487806 596.206654C524.487806 610.067918 513.305843 621.304693 499.512194 621.304693 485.718547 621.304693 474.536585 610.067918 474.536585 596.206654L474.536585 276.206654ZM474.465781 119.263855C474.565553 105.402953 485.828105 94.24775 499.621393 94.348013 513.414679 94.448275 524.515467 105.766033 524.415695 119.626935L523.955031 183.624333C523.855258 197.485233 512.592708 208.640437 498.79942 208.540175 485.006133 208.439913 473.905346 197.122153 474.005118 183.261252L474.465781 119.263855Z"  horiz-adv-x="1024" />

    
    <glyph glyph-name="wrong" unicode="&#59063;" d="M1024 384C1024 666.769792 794.769792 896 512 896 229.230208 896 0 666.769792 0 384 0 101.230208 229.230208-128 512-128 629.410831-128 740.826187-88.331046 830.768465-16.686662 841.557579-8.092491 843.33693 7.620766 834.742758 18.409879 826.148587 29.198991 810.43533 30.978342 799.646219 22.384173 718.470035-42.277495 618.001779-78.048781 512-78.048781 256.817504-78.048781 49.951219 128.817504 49.951219 384 49.951219 639.182496 256.817504 846.048781 512 846.048781 767.182496 846.048781 974.048781 639.182496 974.048781 384 974.048781 296.507166 949.714859 212.663236 904.470807 140.039307 897.177109 128.331757 900.755245 112.928203 912.462793 105.634507 924.170342 98.340809 939.573897 101.918942 946.867595 113.626492 997.013826 194.119204 1024 287.101621 1024 384ZM331.838918 232.424508C322.174057 222.583006 322.317252 206.769971 332.158756 197.105109 342.000258 187.440247 357.813293 187.583443 367.478155 197.424947L717.473766 553.817293C727.138628 563.658795 726.995433 579.471829 717.153931 589.136691 707.312427 598.801553 691.499394 598.658357 681.834532 588.816853L331.838918 232.424508ZM681.834532 197.424947C691.499394 187.583443 707.312427 187.440247 717.153931 197.105109 726.995433 206.769971 727.138628 222.583006 717.473766 232.424508L367.478155 588.816853C357.813293 598.658357 342.000258 598.801553 332.158756 589.136691 322.317252 579.471829 322.174057 563.658795 331.838918 553.817293L681.834532 197.424947Z"  horiz-adv-x="1024" />

    
    <glyph glyph-name="account" unicode="&#59064;" d="M793.6 579.008546C793.6 742.296018 661.792629 874.666667 499.2 874.666667 336.607371 874.666667 204.8 742.296018 204.8 579.008546 204.8 415.721077 336.607371 283.350428 499.2 283.350428 661.792629 283.350428 793.6 415.721077 793.6 579.008546ZM256 579.008546C256 713.898197 364.88435 823.247863 499.2 823.247863 633.51565 823.247863 742.4 713.898197 742.4 579.008546 742.4 444.118897 633.51565 334.769231 499.2 334.769231 364.88435 334.769231 256 444.118897 256 579.008546ZM0-102.290598 0-128 25.6-128 486.4-128 998.4-128 1024-128 1024-102.290598C1024 128.537329 787.090923 334.769231 512 334.769231 495.448045 334.769231 478.989086 334.099108 462.660538 332.767422 448.568439 331.618131 485.255599 319.213724 486.4 305.061404 501.350035 306.280663 496.831226 283.350428 512 283.350428 760.310844 283.350428 972.8 98.376331 972.8-102.290598L998.4-76.581197 486.4-76.581197 25.6-76.581197 51.2-102.290598C51.2 34.242573 137.013906 159.054662 275.263548 228.560915 287.906261 234.917154 293.024384 250.362647 286.695191 263.05939 280.366001 275.756134 264.986234 280.896128 252.34352 274.539889 97.581613 196.731947 0 54.804309 0-102.290598Z"  horiz-adv-x="1024" />

    
    <glyph glyph-name="add" unicode="&#59065;" d="M853.333333 362.666667C865.115407 362.666667 874.666667 372.217926 874.666667 384 874.666667 395.782074 865.115407 405.333333 853.333333 405.333333L170.666667 405.333333C158.884592 405.333333 149.333333 395.782074 149.333333 384 149.333333 372.217926 158.884592 362.666667 170.666667 362.666667L853.333333 362.666667ZM490.666667 42.666667C490.666667 30.884593 500.217926 21.333333 512 21.333333 523.782074 21.333333 533.333333 30.884593 533.333333 42.666667L533.333333 725.333333C533.333333 737.115408 523.782074 746.666667 512 746.666667 500.217926 746.666667 490.666667 737.115408 490.666667 725.333333L490.666667 42.666667Z"  horiz-adv-x="1024" />

    
    <glyph glyph-name="clock" unicode="&#59067;" d="M1024 384C1024 666.769792 794.769792 896 512 896 229.230208 896 0 666.769792 0 384 0 101.230208 229.230208-128 512-128 625.316262-128 733.09232-91.060258 821.44823-23.93747 832.170355-15.792017 834.259159-0.496821 826.113707 10.225303 817.968254 20.947428 802.67306 23.036233 791.950935 14.89078 712.006355-45.842033 614.569408-79.238095 512-79.238095 256.160663-79.238095 48.761905 128.160663 48.761905 384 48.761905 639.839337 256.160663 847.238095 512 847.238095 767.839337 847.238095 975.238095 639.839337 975.238095 384 975.238095 289.261734 946.765111 198.842236 894.355733 122.396286 886.741822 111.290398 889.572629 96.115004 900.678517 88.501092 911.784403 80.887181 926.959799 83.717988 934.573709 94.823876 992.505146 179.324474 1024 279.340297 1024 384ZM487.619049 286.47619C487.619049 273.010963 498.534771 262.095238 512 262.095238 525.465229 262.095238 536.380951 273.010963 536.380951 286.47619L536.380951 652.190477C536.380951 665.655703 525.465229 676.571428 512 676.571428 498.534771 676.571428 487.619049 665.655703 487.619049 652.190477L487.619049 286.47619ZM481.586633 424.435921C472.719716 434.569538 457.316742 435.596403 447.183125 426.729489 437.049508 417.862575 436.022643 402.459599 444.889559 392.325982L615.556226 197.278364C624.42314 187.144747 639.826114 186.117882 649.959731 194.984796 660.093348 203.851712 661.120213 219.254686 652.253299 229.388303L481.586633 424.435921Z"  horiz-adv-x="1024" />

    
    <glyph glyph-name="remind" unicode="&#59068;" d="M0 460.690763 0 285.975904C0 250.691957 28.657739 222 63.838605 222L228.9009 222 213.800267 228.264094 469.201726-27.669451C499.273171-57.803546 535.639639-42.646511 535.639639 0.024294L535.639639 746.642371C535.639639 789.160948 499.309939 804.507056 469.201726 774.336117L213.800267 518.402573 228.9009 524.666667 63.838605 524.666667C28.573201 524.666667 0 495.988777 0 460.690763ZM228.9009 482 237.750464 482 244.001534 488.264094 499.402993 744.197638C501.578012 746.37719 503.223142 747.547599 503.936853 747.833559 502.587712 747.293003 500.074389 747.191133 497.235991 748.390108 494.446571 749.568393 492.826063 751.363987 492.299426 752.612451 492.628553 751.832211 492.972973 749.774816 492.972973 746.642371L492.972973 0.024294C492.972973-3.146332 492.625939-5.221845 492.296619-6.001423 492.834735-4.727578 494.485777-2.907403 497.311223-1.729796 500.154871-0.544602 502.647469-0.657431 503.972905-1.192945 503.239477-0.896619 501.582121 0.285361 499.402993 2.469028L244.001534 258.402573 237.750464 264.666667 228.9009 264.666667 63.838605 264.666667C52.233293 264.666667 42.666667 274.244717 42.666667 285.975904L42.666667 460.690763C42.666667 472.459486 52.172352 482 63.838605 482L228.9009 482ZM821.045045 360.333333C821.045045 479.485463 730.531159 576.666667 618.090091 576.666667 606.308015 576.666667 596.756757 567.115407 596.756757 555.333333 596.756757 543.55126 606.308015 534 618.090091 534 706.262724 534 778.378379 456.572256 778.378379 360.333333 778.378379 264.094411 706.262724 186.666667 618.090091 186.666667 606.308015 186.666667 596.756757 177.115407 596.756757 165.333333 596.756757 153.55126 606.308015 144 618.090091 144 730.531159 144 821.045045 241.181203 821.045045 360.333333ZM1002.666667 368.706967C1002.666667 526.122513 905.044211 666.571596 756.28896 730.913547 745.475106 735.590924 732.916983 730.616327 728.239605 719.802474 723.562229 708.988621 728.536826 696.430497 739.350679 691.75312 872.873312 633.999819 960 508.650961 960 368.706967 960 235.822797 881.48423 115.77283 758.227616 54.432247 747.679578 49.18285 743.384179 36.376499 748.633577 25.828461 753.882974 15.280422 766.689325 10.985024 777.237363 16.234419 914.638133 84.614065 1002.666667 219.208966 1002.666667 368.706967Z"  horiz-adv-x="1024" />

    
    <glyph glyph-name="discount" unicode="&#59077;" d="M855.903027 334.599537 457.002421-37.283098C427.000478-65.36995 378.630415-65.004819 349.185589-36.452262L87.045522 217.744166C58.072052 245.839652 57.513624 292.117092 85.796115 321.028083L565.999763 811.902924 548.571428 804.571428 877.886948 804.571428C918.232493 804.571428 950.857143 771.868927 950.857143 731.252157L950.857143 414.47619C950.857143 401.010963 961.772866 390.095238 975.238095 390.095238 988.703324 390.095238 999.619049 401.010963 999.619049 414.47619L999.619049 731.252157C999.619049 798.773401 945.189001 853.333333 877.886948 853.333333L548.571428 853.333333C542.012309 853.333333 535.729847 850.69052 531.143093 846.001838L50.939447 355.126999C3.783193 306.922829 4.715564 229.656339 53.100125 182.737975L315.240192-71.458453C363.379925-118.139405 441.35376-118.728006 490.290377-72.915004L889.153871 298.932958C899.002925 308.114925 899.543706 323.542615 890.361739 333.391669 881.179772 343.240723 865.752081 343.781504 855.903027 334.599537L855.903027 334.599537ZM743.619049 487.619049C804.212574 487.619049 853.333333 536.739806 853.333333 597.333333 853.333333 657.92686 804.212574 707.047619 743.619049 707.047619 683.025521 707.047619 633.904762 657.92686 633.904762 597.333333 633.904762 536.739806 683.025521 487.619049 743.619049 487.619049L743.619049 487.619049ZM743.619049 536.380951C709.955977 536.380951 682.666667 563.670263 682.666667 597.333333 682.666667 630.996403 709.955977 658.285714 743.619049 658.285714 777.282118 658.285714 804.571428 630.996403 804.571428 597.333333 804.571428 563.670263 777.282118 536.380951 743.619049 536.380951L743.619049 536.380951Z"  horiz-adv-x="1024" />

    
    <glyph glyph-name="service" unicode="&#59079;" d="M537.676629 323.222984C667.27978 323.222984 772.259879 429.227278 772.259879 559.887668 772.259879 690.548058 667.27978 796.552352 537.676629 796.552352 408.073477 796.552352 303.093381 690.548058 303.093381 559.887668 303.093381 429.227278 408.073477 323.222984 537.676629 323.222984L537.676629 323.222984ZM537.676629 365.695418C431.623156 365.695418 345.565814 452.592345 345.565814 559.887668 345.565814 667.182992 431.623156 754.079918 537.676629 754.079918 643.730103 754.079918 729.787446 667.182992 729.787446 559.887668 729.787446 452.592345 643.730103 365.695418 537.676629 365.695418L537.676629 365.695418ZM1001.664066-128.000004C1001.664066 144.568772 782.755985 365.612541 512.615542 365.612541 242.4751 365.612541 23.567019 144.568772 23.567019-128.000004L66.039452-128.000004C66.039452 121.203706 266.024779 323.140108 512.615542 323.140108 759.206306 323.140108 959.191633 121.203706 959.191633-128.000004L1001.664066-128.000004 1001.664066-128.000004ZM233.809816 323.140108C281.846495 323.140108 320.7039 362.376611 320.7039 410.674759 320.7039 458.972904 281.846495 498.209407 233.809816 498.209407 185.773138 498.209407 146.915732 458.972904 146.915732 410.674759 146.915732 362.376611 185.773138 323.140108 233.809816 323.140108L233.809816 323.140108ZM233.809816 365.612541C209.322817 365.612541 189.388166 385.741678 189.388166 410.674759 189.388166 435.607837 209.322817 455.736974 233.809816 455.736974 258.296816 455.736974 278.231467 435.607837 278.231467 410.674759 278.231467 385.741678 258.296816 365.612541 233.809816 365.612541L233.809816 365.612541ZM830.543236 375.712694C838.435011 378.786592 856.420583 383.749139 869.738118 388.586154 871.10678 389.083035 871.10678 389.083035 872.477119 389.57965 883.299946 393.500215 894.907365 397.647104 906.516385 401.755966 913.482439 404.221512 918.897025 406.125073 921.981649 407.204015L936.206384 412.179557 936.206384 427.249367 936.206384 613.713707 936.206384 626.991352 924.26945 632.805597C922.053561 633.884913 918.144366 635.80435 913.109699 638.302753 904.720115 642.466 896.333421 646.689268 888.525544 650.706884 886.929012 651.529269 886.929012 651.529269 885.338411 652.352304 876.494909 656.933719 869.177034 660.861493 863.892556 663.889351 861.160872 665.45453 859.071734 666.724256 857.78666 667.589638 859.888255 666.174401 860.115079 665.983089 862.214218 661.083781 804.257697 796.352093 670.564953 896 531.990097 896 337.403916 896 179.744666 736.802611 179.744666 540.525212 179.744666 517.409894 181.933686 494.566081 186.246239 472.214878L227.949506 480.261313C224.147939 499.964162 222.2171 520.113706 222.2171 540.525212 222.2171 713.437545 360.953596 853.527567 531.990097 853.527567 652.531844 853.527567 771.567984 764.803961 823.17426 644.356877 827.282349 634.768751 830.445679 632.956251 865.801418 614.640058 867.446153 613.789015 867.446153 613.789015 869.092686 612.940874 877.10527 608.817925 885.669071 604.505469 894.229978 600.257204 899.365609 597.708699 903.366644 595.744168 905.670886 594.621817L893.733951 613.713707 893.733951 427.249367 907.958689 447.294716C904.827575 446.199511 899.364613 444.278941 892.345253 441.794531 880.645251 437.653465 868.943646 433.472926 858.011386 429.51272 856.62458 429.010138 856.62458 429.010138 855.238611 428.506975 841.640096 423.567905 830.384497 419.381635 822.125588 416.164737 817.286018 414.279693 813.48815 412.732937 810.712137 411.50216 808.902954 410.700038 807.434242 409.994724 806.123281 409.265332 804.750891 408.495451 804.750891 408.495451 802.39627 406.780077 797.915841 404.674495 788.070803 396.94891 795.378771 383.232937 802.686739 369.516964 826.258515 374.043767 830.543236 375.712694Z"  horiz-adv-x="1024" />

    
    <glyph glyph-name="beauty" unicode="&#59090;" d="M743.619048 384.000002 743.619048-103.619045 767.999999-79.238091 402.436749-79.238091C361.966454-79.238091 329.142858-46.460515 329.142858-6.114008L329.142858 384.000002 304.761906 359.619051 572.952382 359.619051C586.417608 359.619051 597.333333 370.534773 597.333333 384.000002 597.333333 397.465231 586.417608 408.380953 572.952382 408.380953L304.761906 408.380953 280.380953 408.380953 280.380953 384.000002 280.380953-6.114008C280.380953-73.406298 335.051301-127.999996 402.436749-127.999996L767.999999-127.999996 792.38095-127.999996 792.38095-103.619045 792.38095 384.000002C792.38095 397.465231 781.465228 408.380953 767.999999 408.380953 754.53477 408.380953 743.619048 397.465231 743.619048 384.000002L743.619048 384.000002ZM670.476189 505.904763 670.476189 774.095239C669.24573 789.275639 665.564723 807.656675 657.506525 826.550542 641.134018 864.938768 612.120891 888.58573 570.10368 883.642529 565.389728 883.087946 560.65841 882.167046 555.912998 880.899285 526.12375 872.940941 496.579123 851.899039 467.116168 821.874157 454.583228 809.102185 442.894214 795.500978 432.311201 781.900938 425.929992 773.700562 421.280327 767.243813 418.664001 763.376931L414.476191 757.187423 414.476191 749.714286 414.476191 493.424202 463.238095 493.424202 463.238095 749.714286 459.050285 736.051642C461.092638 739.070203 465.120136 744.66298 470.794381 751.95485 480.303791 764.175222 490.805099 776.394427 501.920188 787.721506 525.80899 812.065924 548.994795 828.579025 568.498592 833.789561 571.02992 834.465817 573.465015 834.939783 575.801081 835.214614 592.608825 837.191996 603.871353 828.012544 612.653661 807.420878 615.935464 799.726114 618.404081 791.235777 620.111257 782.711012 621.128998 777.628946 621.64641 773.813835 621.806333 771.978643L621.714284 505.904763 670.476189 505.904763 670.476189 505.904763ZM774.15806 412.245448 688.824727 509.769256C684.195073 515.060287 677.506745 518.09524 670.476189 518.09524L390.095239 518.09524C382.57151 518.09524 375.469202 514.621616 370.85008 508.682745L285.516747 398.968459C277.249896 388.339652 279.164641 373.021694 289.793449 364.754844 300.422256 356.487994 315.740214 358.402737 324.007064 369.031546L409.340397 478.74583 390.095239 469.333335 670.476189 469.333335 652.127654 477.659317 737.460987 380.135509C746.327901 370.001892 761.730875 368.975027 771.864492 377.841941 781.998109 386.708857 783.024974 402.111831 774.15806 412.245448L774.15806 412.245448Z"  horiz-adv-x="1024" />

    
    <glyph glyph-name="gifts" unicode="&#59099;" d="M151.31783 339.68253 151.31783 12.092546C151.31783-24.029577 180.635004-53.418204 216.629434-53.418204L784.642673-53.418204C820.737084-53.418204 849.954278-24.237995 849.954278 11.898268L849.954278 328.930234 806.295364 328.930234 806.295364 11.898268C806.295364-0.113453 796.637303-9.759287 784.642673-9.759287L216.629434-9.759287C204.770979-9.759287 194.976744 0.058818 194.976744 12.092546L194.976744 339.68253 151.31783 339.68253 151.31783 339.68253ZM544.248062-31.255814 544.248062 590.883721 500.589148 590.883721 500.589148-31.255814 544.248062-31.255814 544.248062-31.255814ZM85.829457 569.054263 828.143565 569.054263C864.241261 569.054263 893.519379 539.721495 893.519379 503.514167L893.519379 350.759691 915.348836 372.589148 173.03473 372.589148C136.937034 372.589148 107.658915 401.921916 107.658915 438.129244L107.658915 590.883721 85.829457 569.054263 85.829457 569.054263ZM85.829457 612.713178 64 612.713178 64 590.883721 64 438.129244C64 377.82797 112.806637 328.930234 173.03473 328.930234L915.348836 328.930234 937.178295 328.930234 937.178295 350.759691 937.178295 503.514167C937.178295 563.815441 888.371659 612.713178 828.143565 612.713178L85.829457 612.713178 85.829457 612.713178ZM456.930234 634.542635 587.906976 634.542635 566.077519 656.372094 566.077519 590.883721 587.906976 612.713178 456.930234 612.713178 478.759691 590.883721 478.759691 656.372094 456.930234 634.542635 456.930234 634.542635ZM456.930234 678.20155 435.100774 678.20155 435.100774 656.372094 435.100774 590.883721 435.100774 569.054263 456.930234 569.054263 587.906976 569.054263 609.736433 569.054263 609.736433 590.883721 609.736433 656.372094 609.736433 678.20155 587.906976 678.20155 456.930234 678.20155 456.930234 678.20155ZM551.660693 644.513212C552.55357 645.893111 554.286927 648.539855 556.764205 652.271447 560.914573 658.52327 565.616813 665.497734 570.773873 673.012306 585.499725 694.469978 600.893771 715.920696 616.162106 735.886981 624.310061 746.541999 632.211424 756.491864 639.79069 765.602294 667.823241 799.297985 691.414249 820.093023 697.054263 820.093023 731.078613 820.093023 790.860256 782.336197 821.48217 741.506977 826.567552 734.726467 823.726334 715.724235 811.048563 689.000874 805.881086 678.108392 810.522118 665.089223 821.414601 659.921745 832.307083 654.754268 845.326251 659.3953 850.49373 670.287782 869.606571 710.575579 874.534694 743.535137 856.409301 767.702326 818.268427 818.556826 746.7095 863.751938 697.054263 863.751938 672.038714 863.751938 644.340604 839.336568 606.227876 793.524299 598.243548 783.926974 589.974942 773.514657 581.481306 762.407593 565.71088 741.78473 549.895622 719.747076 534.776514 697.716376 529.487838 690.010018 524.661009 682.850761 520.390835 676.418474 517.815787 672.539603 515.989067 669.7503 515.005973 668.230974 508.456493 658.109052 511.352531 644.59421 521.474453 638.044732 531.596375 631.495253 545.111215 634.39129 551.660693 644.513212L551.660693 644.513212ZM537.988958 668.230974C537.005865 669.7503 535.179145 672.539603 532.604096 676.418474 528.333922 682.850761 523.507093 690.010018 518.218415 697.716376 503.099307 719.747076 487.284049 741.78473 471.513626 762.407593 463.019987 773.514657 454.751383 783.926974 446.767055 793.524299 408.654327 839.336568 380.956218 863.751938 355.940668 863.751938 306.285431 863.751938 234.726504 818.556826 196.585628 767.702326 178.612682 743.738397 183.326064 711.107286 202.033209 671.279172 208.2705 657.999778 216.033171 644.144388 224.982418 629.939234 233.201436 616.893175 241.973779 604.249862 250.747785 592.458338 256.034751 585.353105 260.185632 580.063319 262.642498 577.060484L296.432634 604.706959C294.378822 607.217173 290.636015 611.986918 285.773954 618.521118 277.632915 629.461984 269.490213 641.197815 261.921855 653.211081 253.864791 666.000071 246.954809 678.333518 241.55017 689.840169 229.189078 716.157333 226.494032 734.81534 231.51276 741.506977 262.134675 782.336197 321.916316 820.093023 355.940668 820.093023 361.580681 820.093023 385.171691 799.297985 413.204241 765.602294 420.783505 756.491864 428.68487 746.541999 436.832823 735.886981 452.101161 715.920696 467.495204 694.469978 482.221058 673.012306 487.378116 665.497734 492.080356 658.52327 496.230726 652.271447 498.708002 648.539855 500.441361 645.893111 501.334236 644.513212L537.988958 668.230974 537.988958 668.230974Z"  horiz-adv-x="1024" />

    
    <glyph glyph-name="lights" unicode="&#59102;" d="M679.665263-66.872969C675.413163-67.001581 667.598765-67.2272 656.935307-67.517485 639.154961-68.001508 619.950714-68.48557 600.03657-68.937329 574.44019-69.51799 549.558818-70.001798 526.108928-70.356444 483.043249-71.00775 447.182615-71.188531 421.024495-70.792926 406.443524-70.57241 395.149568-70.173867 387.624841-69.604864 384.224145-69.34771 381.80234-69.066908 380.72791-68.855669 381.194349-68.947373 381.890485-69.140388 383.258458-69.740358 390.735245-73.01955 397.00813-78.806517 397.00813-91.317073 397.00813-50.892646 397.00813-50.892646 397.00813 1.896096 397.00813 43.672988 397.00813 43.672988 397.00813 79.321376 397.00813 112.274716 397.00813 112.274716 397.00813 120.642377 397.00813 127.699328 393.959659 134.412267 388.646061 139.056213 387.096252 140.410707 384.043748 143.151629 379.704591 147.16665 372.388975 153.935787 364.215511 161.756847 355.400661 170.516457 330.191165 195.567979 304.977793 223.038982 281.499353 251.993824 238.026531 305.606784 205.693847 357.937331 189.10623 405.947465 181.047142 429.273171 176.910569 451.089355 176.910569 471.154473 176.910569 666.995542 335.671125 825.756097 531.512194 825.756097 727.353265 825.756097 886.113822 666.995542 886.113822 471.154473 886.113822 453.145037 882.465941 433.765495 875.316446 413.16864 857.948181 363.132719 820.944222 308.273549 770.158263 252.142029 744.062129 223.299104 716.032405 195.9968 688.004092 171.147565 678.2009 162.456292 669.109867 154.702249 660.971618 147.995552 656.141248 144.014863 652.740241 141.297105 651.008689 139.951281 645.047855 135.318308 641.560975 128.191945 641.560975 120.642379L641.560975 6.504064 666.01626 30.959349 384.780489 30.959349C371.274208 30.959349 360.325203 20.010347 360.325203 6.504064 360.325203-7.002217 371.274208-17.951219 384.780489-17.951219L666.01626-17.951219C679.522541-17.951219 690.471546-7.002217 690.471546 6.504064L690.471546 120.642379 681.023831 101.333474C683.113419 102.957577 686.877045 105.965105 692.077163 110.2505 700.656395 117.32061 710.193408 125.455044 720.451194 134.54935 749.739953 160.516064 779.027302 189.04336 806.427104 219.327172 861.228109 279.896348 901.60938 339.762458 921.522494 397.129786 930.372414 422.625363 935.02439 447.339215 935.02439 471.154473 935.02439 694.008103 754.365826 874.666667 531.512194 874.666667 308.658563 874.666667 128 694.008103 128 471.154473 128 445.266368 133.140183 418.157167 142.877122 389.975196 161.629467 335.699614 196.757585 278.844649 243.508777 221.188631 268.176678 190.766884 294.548672 162.033515 320.924541 135.822929 330.16457 126.640802 338.75635 118.419462 346.486466 111.26679 351.174748 106.928725 354.570415 103.879667 356.459629 102.228542L348.097562 120.642379C348.097562 112.274716 348.097562 112.274716 348.097562 79.321376 348.097559 43.67299 348.097559 43.67299 348.097559 1.896096 348.097559-50.892646 348.097559-50.892646 348.097562-91.317073 348.097562-104.40506 354.962325-110.738057 363.613472-114.532303 366.137018-115.639087 368.552418-116.308794 371.29242-116.847494 374.652378-117.508083 378.769417-117.985442 383.936862-118.376192 392.646507-119.034797 404.802199-119.46375 420.284879-119.697903 447.038784-120.102517 483.33091-119.919563 526.848544-119.261421 550.431567-118.904762 575.433585-118.418609 601.145837-117.835317 621.138404-117.381779 640.415629-116.895878 658.266276-116.409941 668.981414-116.118251 676.844655-115.891221 681.143991-115.761178 694.644098-115.352838 705.257071-104.077815 704.848732-90.577709 704.440393-77.077602 693.16537-66.464629 679.665263-66.872969L679.665263-66.872969ZM379.715633 343.813193 501.992055 221.53677C511.189239 212.339586 525.97641 211.95072 535.644275 220.651799L657.920698 330.700578C667.959838 339.735804 668.77367 355.198633 659.738445 365.237771 650.703219 375.276911 635.240393 376.090743 625.201252 367.055518L502.92483 257.006739 536.57705 256.121766 414.300627 378.398189C404.750244 387.948572 389.266016 387.948572 379.715633 378.398189 370.16525 368.847806 370.16525 353.363575 379.715633 343.813193L379.715633 343.813193ZM494.829269 226.601626 494.829269 18.731708 543.739838 18.731708 543.739838 226.601626 494.829269 226.601626 494.829269 226.601626Z"  horiz-adv-x="1024" />

    
    <glyph glyph-name="browse" unicode="&#59110;" d="M1012.444444 395.326985 1010.920636 397.866667C865.193651 615.161905 701.536508 725.333333 524.419049 725.333333 226.48889 725.333333 13.180952 398.501587 11.580952 395.326985 1.549206 375.847618 1.549206 355.2 11.580952 335.644444L13.866667 331.987302C175.568254 116.495238 338.514285 11.733333 512 11.733333 588.393651 11.733333 658.082539 32.736508 719.847618 64.431746 752.101587 80.965079 788.190477 102.298413 809.828572 121.346031 814.349205 125.358731 816.761905 132.317461 816.761905 139.174603 816.761905 153.219049 805.384128 164.571428 791.365079 164.571428 785.777777 164.571428 780.901587 162.387302 776.71111 159.365079 776.71111 159.365079 716.469841 118.628572 682.844444 102.755556 631.11111 78.273015 573.841269 62.552382 512 62.552382 356.114285 62.552382 206.958731 160.025397 56.025397 360.457143 54.323809 364.546031 54.526984 367.796826 56.533333 371.682539 58.260317 374.704762 256.812698 674.539683 524.419049 674.539683 683.174603 674.539683 832.304762 572.419048 967.796826 370.996826 968.380951 369.67619 968.71111 368.558731 968.914285 367.746031L966.679364 364.393651C949.942857 338.996826 879.009523 252.469841 871.314285 244.038095 863.619049 235.606349 860.419049 232.253969 860.419049 223.746031 860.419049 209.701587 871.796826 198.349205 885.815872 198.349205 893.079364 198.349205 898.793651 200.990477 904.177777 206.374603 909.561905 211.733333 990.907936 308.850795 1009.092064 336.431746L1009.879364 337.625397C1022.247618 351.92381 1023.339682 374.120636 1012.444444 395.326985L1012.444444 395.326985ZM393.498413 371.606349C393.498413 309.460318 448.88889 254.958731 512 254.958731 576.203174 254.958731 630.47619 308.393651 630.47619 371.606349 630.47619 434.819049 576.203174 488.203174 512 488.203174 448.88889 488.203174 393.498413 433.726985 393.498413 371.606349L393.498413 371.606349ZM579.682539 371.606349C579.682539 337.142857 547.403174 305.752382 512 305.752382 476.546031 305.752382 444.292064 337.142857 444.292064 371.606349 444.292064 406.044444 476.571428 437.409523 512 437.409523 547.428572 437.409523 579.682539 406.044444 579.682539 371.606349L579.682539 371.606349Z"  horiz-adv-x="1024" />

    
    <glyph glyph-name="scanning" unicode="&#59116;" d="M910.390485 476.93824C898.522325 476.93824 888.928939 486.53184 888.928939 498.4L888.928939 756.884053C888.928939 774.63296 874.485205 789.07648 856.736469 789.07648 845.340331 789.07648 612.760491 788.8192 598.960683 788.389973 588.315605 787.7888 578.121429 795.23584 576.297259 806.245973 574.344149 817.942187 582.220672 828.995413 593.895723 830.9696 599.862059 831.97824 854.182528 832 856.736469 832 898.157525 832 931.852245 798.304853 931.852245 756.884053L931.852245 498.4C931.852245 486.53184 922.258859 476.93824 910.390485 476.93824L910.390485 476.93824ZM85.461632 476.93824C73.593387 476.93824 64 486.53184 64 498.4L64 756.884053C64 798.304853 97.694805 832 139.115819 832 141.669717 832 395.990187 831.97824 401.956565 830.9696 413.631659 828.995413 421.508139 817.942187 419.555072 806.245973 417.709355 795.23584 407.686699 787.810133 396.891605 788.389973 383.091755 788.8192 150.511915 789.07648 139.115819 789.07648 121.366912 789.07648 106.923307 774.63296 106.923307 756.884053L106.923307 498.4C106.923307 486.53184 97.329963 476.93824 85.461632 476.93824L85.461632 476.93824ZM856.736469-77.728C854.182528-77.728 599.862059-77.70624 593.895723-76.698027 582.220672-74.72384 574.344149-63.670613 576.297259-51.973973 578.121429-40.964267 588.315605-33.62432 598.960683-34.117973 612.696192-34.5472 845.340331-34.804907 856.736469-34.804907 874.485205-34.804907 888.928939-20.361387 888.928939-2.612907L888.928939 255.871573C888.928939 267.74016 898.522325 277.333333 910.390485 277.333333 922.258859 277.333333 931.852245 267.74016 931.852245 255.871573L931.852245-2.612907C931.852245-44.033707 898.157525-77.728 856.736469-77.728L856.736469-77.728ZM139.115819-77.728C97.694805-77.728 64-44.033707 64-2.612907L64 255.871573C64 267.74016 73.593387 277.333333 85.461632 277.333333 97.329963 277.333333 106.923307 267.74016 106.923307 255.871573L106.923307-2.612907C106.923307-20.361387 121.366912-34.804907 139.115819-34.804907 150.511915-34.804907 383.156139-34.5472 396.891605-34.117973 407.708245-33.64608 417.709355-40.964267 419.555072-51.973973 421.508139-63.670613 413.631659-74.72384 401.956565-76.698027 395.990187-77.70624 141.669717-77.728 139.115819-77.728L139.115819-77.728ZM983.5232 362.409813 42.794965 362.409813C30.926592 362.409813 21.333333 372.003413 21.333333 383.872 21.333333 395.739733 30.926592 405.333333 42.794965 405.333333L983.5232 405.333333C995.391488 405.333333 1004.984832 395.739733 1004.984832 383.872 1004.984832 372.003413 995.391488 362.409813 983.5232 362.409813L983.5232 362.409813Z"  horiz-adv-x="1024" />

    
    <glyph glyph-name="pin" unicode="&#59122;" d="M51.196068-128c-13.021992 0-26.0184 5.091113-36.021541 15.094254-18.113104 18.164271-20.262117 46.050265-5.091113 66.337966l213.059228 288.325828-166.983379 166.983379C39.862586 425.038104 36.639068 450.51925 48.305135 470.7302c7.982046 12.612656 76.699275 112.82315 229.483822 75.010766 2.532765-0.307002 5.270197-0.537253 8.212297-0.793088 6.267953-0.537253 13.277827-1.17684 20.87612-2.404847 32.33752-5.244614 89.516599 20.722619 139.148552 63.037697 47.559691 40.49865 78.285451 87.751339 78.285451 120.344693 0 7.57271-0.179084 15.631507-0.358169 23.536802-1.279174 30.623426-3.223519 77.697031 31.979351 112.874317 41.649907 41.701074 107.552953 45.05251 153.270633 7.854129 0.921005-0.741921 1.76526-1.535009 2.583932-2.379264l-0.025583 0c24.585725-24.048472 276.608594-275.815506 279.243692-278.476188 21.694792-21.694792 33.642277-50.527374 33.693444-81.176384 0.025583-30.674593-11.896319-59.456009-33.539943-81.099634-35.023785-35.049369-82.353225-33.053857-113.565071-31.723516-7.393626 0.153501-15.478006 0.332585-23.025133 0.332585-30.828094 0-67.69389-21.592458-103.715431-60.760767-50.808793-55.260318-82.09739-126.63823-79.411124-158.617581 1.125673-10.258976 3.223519-28.37208 3.607271-30.930428 36.891379-149.612195-63.114447-217.843339-74.627013-225.109047-20.697036-12.484739-46.357267-9.389137-63.012113 7.240125l-178.393611 178.393611c-10.003141 10.003141-10.003141 26.171901 0 36.175042s26.171901 10.003141 36.175042 0l178.393611-178.393611c7.854129 5.091113 80.101878 54.646315 51.320462 171.76749-0.51167 2.35368-3.044434 23.562386-4.374775 35.970374-4.298025 51.115795 35.586622 136.027367 92.688951 198.118475 32.439854 35.254036 83.27423 77.287695 141.348731 77.287695 7.905296 0 16.399011-0.179084 24.662475-0.358169 32.41427-1.355924 58.048918-0.972172 75.77827 16.782763 11.973069 11.973069 18.548024 27.885994 18.548024 44.847842-0.025583 17.013015-6.677288 33.00269-18.701524 45.05251C952.220677 555.76969 683.849964 823.756651 675.944668 831.354945c-24.278723 19.724864-60.7096 17.882853-83.785899-5.21903-17.908437-17.908437-18.317772-43.491917-17.013015-75.087516 0.204668-8.800717 0.383752-17.243266 0.383752-25.148562 0-48.378362-35.995957-107.936705-96.270638-159.282751-49.478452-42.135993-122.979792-83.811483-180.491457-74.60143-6.293536 1.023339-12.049819 1.509425-17.192099 1.944345-3.325852 0.281418-6.421454 0.562837-9.312387 0.921005-2.456014 0.07675-4.860861 0.537253-7.188958 1.304758-117.760762 29.037251-167.597382-43.44075-172.893163-51.806549l182.742803-182.026466c8.954218-8.954218 10.028724-23.101883 2.481598-33.309692L51.170485-77.114457l238.617125 174.530506c11.435816 8.365798 27.425491 5.80745 35.740123-5.602782s5.80745-27.399908-5.602782-35.714539l-238.821793-174.12117C72.148939-124.699731 61.685295-128 51.196068-128z"  horiz-adv-x="1025" />

    
    <glyph glyph-name="text" unicode="&#59132;" d="M608 602.8032c14.1568 0 25.6 11.6224 25.6 25.9584 0 14.336-11.4432 25.9328-25.6 25.9328l-140.8 0c-14.1312 0-25.6-11.6224-25.6-25.9328 0-14.336 11.4688-25.9584 25.6-25.9584L608 602.8032 608 602.8032zM864 602.8032c14.1568 0 25.6 11.6224 25.6 25.9584 0 14.336-11.4432 25.9328-25.6 25.9328l-140.8 0c-14.1568 0-25.6-11.6224-25.6-25.9328 0-14.336 11.4432-25.9584 25.6-25.9584L864 602.8032 864 602.8032zM608 447.1552c14.1568 0 25.6 11.5968 25.6 25.9328s-11.4432 25.9584-25.6 25.9584l-140.8 0c-14.1312 0-25.6-11.6224-25.6-25.9584s11.4688-25.9328 25.6-25.9328L608 447.1552 608 447.1552zM864 447.1552c14.1568 0 25.6 11.5968 25.6 25.9328s-11.4432 25.9584-25.6 25.9584l-140.8 0c-14.1568 0-25.6-11.6224-25.6-25.9584s11.4432-25.9328 25.6-25.9328L864 447.1552 864 447.1552zM608 291.456c14.1568 0 25.6 11.6224 25.6 25.9584 0 14.3616-11.4432 25.9584-25.6 25.9584l-140.8 0c-14.1312 0-25.6-11.5968-25.6-25.9584 0-14.336 11.4688-25.9584 25.6-25.9584L608 291.456 608 291.456zM864 291.456c14.1568 0 25.6 11.6224 25.6 25.9584 0 14.3616-11.4432 25.9584-25.6 25.9584l-140.8 0c-14.1568 0-25.6-11.5968-25.6-25.9584 0-14.336 11.4432-25.9584 25.6-25.9584L864 291.456 864 291.456zM864 291.456M608 135.7312c14.1568 0 25.6 11.6224 25.6 25.9584 0 14.3616-11.4432 25.9584-25.6 25.9584l-140.8 0c-14.1312 0-25.6-11.5968-25.6-25.9584 0-14.336 11.4688-25.9584 25.6-25.9584L608 135.7312 608 135.7312zM864 135.7312c14.1568 0 25.6 11.6224 25.6 25.9584 0 14.3616-11.4432 25.9584-25.6 25.9584l-140.8 0c-14.1568 0-25.6-11.5968-25.6-25.9584 0-14.336 11.4432-25.9584 25.6-25.9584L864 135.7312 864 135.7312zM864 135.7312M352 602.8032c14.1568 0 25.6 11.6224 25.6 25.9584 0 14.336-11.4432 25.9328-25.6 25.9328l-140.8 0c-14.1312 0-25.6-11.6224-25.6-25.9328 0-14.336 11.4688-25.9584 25.6-25.9584L352 602.8032 352 602.8032zM352 447.1552c14.1568 0 25.6 11.5968 25.6 25.9328s-11.4432 25.9584-25.6 25.9584l-140.8 0c-14.1312 0-25.6-11.6224-25.6-25.9584s11.4688-25.9328 25.6-25.9328L352 447.1552 352 447.1552zM352 291.456c14.1568 0 25.6 11.6224 25.6 25.9584 0 14.3616-11.4432 25.9584-25.6 25.9584l-140.8 0c-14.1312 0-25.6-11.5968-25.6-25.9584 0-14.336 11.4688-25.9584 25.6-25.9584L352 291.456 352 291.456zM608 291.456M352 135.7312c14.1568 0 25.6 11.6224 25.6 25.9584 0 14.3616-11.4432 25.9584-25.6 25.9584l-140.8 0c-14.1312 0-25.6-11.5968-25.6-25.9584 0-14.336 11.4688-25.9584 25.6-25.9584L352 135.7312 352 135.7312zM608 135.7312M881.7664 832 28.4416 832 0 832l0-28.9024 0-722.5344C0 0.7424 63.6928-64 142.2336-64l853.3248 0L1024-64l0 28.9024L1024 225.024c0 15.9744-12.7232 28.9024-28.4416 28.9024-15.6928 0-28.4416-12.928-28.4416-28.9024l0-231.2192L142.2336-6.1952c-47.104 0-85.3248 38.8608-85.3248 86.784L56.9088 774.1952l824.8832 0c47.104 0 85.3248-38.912 85.3248-86.8864l0.2304-259.9424c0.4608-15.3088 12.8512-27.648 28.2624-27.648s27.8016 12.3392 28.2624 27.648L1024 687.3088C1024 767.2064 960.3328 832 881.7664 832z"  horiz-adv-x="1024" />

    
    <glyph glyph-name="move" unicode="&#59133;" d="M501.0944-125.824c6.9376-2.8928 14.8224-2.8928 21.8112 0 3.4304 1.4336 6.528 3.4816 9.1136 6.0672 0.0256 0 0.0768 0.0256 0.0768 0.0256l158.9248 158.9248c11.1104 11.1104 11.1104 29.1328 0 40.2176-11.0848 11.0848-29.0816 11.0848-40.1664-0.0256l-110.4384-110.4128 0.0256 335.36c0 15.6928-12.7232 28.416-28.416 28.416s-28.416-12.6976-28.416-28.3904l0-335.3856-110.4128 110.4128c-11.1104 11.0848-29.1072 11.0848-40.1408 0-11.1104-11.1104-11.136-29.1072-0.0512-40.192l158.9504-158.9248c0.8192-0.8192 1.8944-1.1776 2.816-1.8688C496.7168-123.1872 498.688-124.8256 501.0944-125.824zM522.9056 893.824c-6.9376 2.8928-14.8224 2.8928-21.7856 0C497.6896 892.416 494.592 890.368 491.9808 887.7824c-0.0256 0-0.0768-0.0512-0.0768-0.0512L332.9792 728.832c-11.1104-11.1104-11.1104-29.1328 0-40.2176 11.0848-11.0848 29.0816-11.0848 40.1664 0.0256l110.4384 110.4128-0.0256-335.36c0-15.6928 12.7232-28.416 28.416-28.416 15.6928 0 28.4416 12.6976 28.4416 28.3904L540.416 799.0528l110.4128-110.4128c11.1104-11.0848 29.1072-11.0848 40.1408 0 11.1104 11.1104 11.1616 29.1072 0.0512 40.192l-158.9504 158.8992c-0.8192 0.8448-1.8944 1.2032-2.816 1.8944C527.2832 891.1872 525.312 892.8256 522.9056 893.824zM1021.824 373.0944c2.8928 6.9376 2.8928 14.8224 0 21.8112-1.408 3.4304-3.456 6.528-6.0416 9.1136 0 0.0256-0.0512 0.0768-0.0512 0.0768l-158.8992 158.9248c-11.1104 11.1104-29.1584 11.1104-40.2432 0-11.0592-11.0848-11.0592-29.0816 0.0512-40.1664l110.3872-110.4384-335.36 0.0256c-15.6928 0-28.3904-12.7232-28.3904-28.416s12.6976-28.416 28.3904-28.416l335.36 0-110.3872-110.4128c-11.1104-11.1104-11.1104-29.1072 0-40.1408 11.1104-11.1104 29.1072-11.136 40.192-0.0512l158.8992 158.9504c0.8448 0.8192 1.2032 1.8944 1.8944 2.816C1019.1872 368.7168 1020.8256 370.688 1021.824 373.0944zM2.176 394.9056c-2.8928-6.9376-2.8928-14.8224 0-21.7856 1.408-3.456 3.456-6.5536 6.0416-9.1392l0.0512-0.0512 158.8992-158.9504c11.1104-11.1104 29.1584-11.1104 40.2432 0 11.0592 11.1104 11.0592 29.1072-0.0512 40.192l-110.3872 110.4384 335.36-0.0512c15.6928 0 28.3904 12.7488 28.3904 28.416 0 15.6928-12.6976 28.4416-28.3904 28.4416l-335.36-0.0256 110.3872 110.4128c11.1104 11.1104 11.1104 29.1072 0 40.1408-11.1104 11.1104-29.1072 11.1616-40.192 0.0512l-158.8992-158.9504c-0.8448-0.8192-1.2032-1.8944-1.8944-2.816C4.8128 399.2832 3.1744 397.312 2.176 394.9056z"  horiz-adv-x="1024" />

    
    <glyph glyph-name="subtract" unicode="&#59134;" d="M853.333333 362.666667C865.115407 362.666667 874.666667 372.217925 874.666667 384 874.666667 395.782075 865.115407 405.333333 853.333333 405.333333L170.666667 405.333333C158.884592 405.333333 149.333333 395.782075 149.333333 384 149.333333 372.217925 158.884592 362.666667 170.666667 362.666667L853.333333 362.666667Z"  horiz-adv-x="1024" />

    
    <glyph glyph-name="remind1" unicode="&#59155;" d="M538.566466-127.088677C536.442301-127.088677 534.296495-127.023404 532.085637-126.915658 453.644248-122.970174 421.998927-56.558642 416.233425-22.008283 414.28268-10.196423 422.259039 0.96717 434.050197 2.938793 445.754623 5.019952 456.938872-2.999774 458.976262-14.7477 459.474802-17.435546 471.374332-80.44435 534.296495-83.608784 596.069881-87.532361 611.155621-17.196806 611.740847-14.227299 614.038393-2.479817 625.504392 5.258245 637.208818 2.80914 648.95661 0.489687 656.586167-10.932765 654.245257-22.658784 646.962498-59.441417 613.474848-127.088677 538.566466-127.088677L538.566466-127.088677 538.566466-127.088677ZM57.238985 73.833077C57.304035 73.833077 57.412408 72.143111 58.582842 70.907383 60.663619 68.73949 66.819288 66.39858 77.851798 66.39858L950.850912 66.39858C961.710045 66.39858 966.283453 68.674665 967.063743 69.45482L966.110074 72.554425 966.131714 116.251154 967.367175 118.808453C967.540597 123.512631 965.524846 152.361377 900.998697 212.31394 808.577021 298.168097 751.355358 515.957417 751.355358 668.527121 751.355358 791.250196 551.079467 809.283624 549.042032 809.435184L472.724766 809.370357C472.464656 809.283624 272.167125 791.250196 272.167125 668.527121 272.167125 534.814813 227.365126 304.866254 127.704015 212.31394 61.573964 150.887353 57.195664 121.019712 56.935551 116.251154L57.434073 114.820498 57.195664 73.724883C57.217324 73.789709 57.217324 73.833077 57.238985 73.833077L57.238985 73.833077ZM77.851798 23.049233C54.507951 23.049233 36.929651 29.681668 25.63703 42.729706 15.753293 54.174063 13.239004 68.414463 14.084298 77.995393L14.084298 108.990124C11.439979 125.202593 16.07841 167.772233 98.204521 244.067814 178.878427 319.019473 228.817333 522.74186 228.817333 668.527121 228.817333 831.110081 461.085347 851.853262 470.969083 852.654877L480.023302 852.662278 480.023302 877.970885C480.023302 887.439933 487.691443 895.116113 497.162607 895.116113L519.306723 895.116113C528.7725 895.116113 536.446027 887.436396 536.446027 877.974239L536.446027 852.708401 550.819354 852.72015C562.480459 851.853262 794.705104 831.110081 794.705104 668.527121 794.705104 524.454177 849.282468 319.517967 930.498212 244.067814 1011.86574 168.48756 1013.989862 125.267868 1009.481507 107.79776L1009.481507 79.382235C1011.453889 69.389992 1010.478541 55.32306 1001.851903 43.618499 991.751467 29.984788 974.584928 23.049233 950.850912 23.049233L77.851798 23.049233Z"  horiz-adv-x="1024" />

    
    <glyph glyph-name="icondownload" unicode="&#59156;" d="M995.84-140l-967.68 0c-15.36 0-28.16 12.8-28.16 28.16l0 0c0 15.36 12.8 28.16 28.16 28.16l967.68 0c15.36 0 28.16-12.8 28.16-28.16l0 0c0-15.36-12.8-28.16-28.16-28.16zM926.72 507.68l0 0c-10.24 10.24-30.72 10.24-40.96 0l-348.16-345.6 0 693.76c0 15.36-10.24 28.16-25.6 28.16s-25.6-12.8-25.6-28.16l0-693.76-348.16 345.6c-10.24 10.24-30.72 10.24-40.96 0-10.24-10.24-10.24-28.16 0-40.96l394.24-394.24c2.56-2.56 2.56-2.56 5.12-2.56 0 0 2.56-2.56 2.56-2.56 7.68-2.56 15.36-2.56 23.04 0 2.56 0 2.56 2.56 2.56 2.56 2.56 0 5.12 2.56 5.12 2.56l394.24 394.24c12.8 12.8 12.8 30.72 2.56 40.96z"  horiz-adv-x="1024" />

    
    <glyph glyph-name="good" unicode="&#59159;" d="M743.328-89.536l-316.704 0c-12.896 0-23.392 10.368-23.392 23.104s10.496 23.072 23.392 23.072l316.704 0c67.296 0 99.808 36.512 115.168 67.136 0.768 1.856 1.024 3.552 1.408 5.568 2.912 14.624 7.84 39.168 40.192 77.92 23.328 27.968 19.328 57.664 14.624 92.032-1.472 10.912-2.944 21.76-3.552 32.512-2.688 45.856 9.344 65.664 26.048 93.12 3.04 4.928 6.304 10.304 9.792 16.32 15.328 26.432 14.464 59.232-2.304 87.712-20.48 34.816-59.008 55.648-103.008 55.648-77.952 0-167.808-2.656-168.672-2.656-7.776-0.288-13.888 2.72-18.464 8-4.64 5.28-6.528 12.352-5.28 19.2 0.32 1.6 29.664 160.48 29.664 230.304 0 71.616-54.336 79.328-77.632 79.328-36.832 0-66.784-39.2-66.784-87.424 0-59.936 0-80.16-31.68-123.904-43.712-60.352-126.24-161.632-188.416-161.632L275.04 445.824l0-512.224c0-12.768-10.496-23.104-23.392-23.104L117.76-89.504c-49.056 0-88.992 39.392-88.992 87.808L28.768 404.192c0 48.384 39.904 87.776 88.992 87.776l196.704 0c27.84 0 89.696 58.496 150.304 142.272 22.976 31.712 22.976 39.168 22.976 97.088 0 74.944 49.856 133.6 113.536 133.6 57.408 0 124.448-32.896 124.448-125.504 0-56.128-16.8-160.576-25.44-210.656 33.184 0.8 89.856 1.952 141.408 1.952 60.864 0 114.56-29.376 143.488-78.624 25.216-42.88 26.144-92.928 2.464-133.792-3.68-6.336-7.104-11.968-10.272-17.184-15.52-25.472-21.344-35.008-19.488-66.656 0.576-9.568 1.952-19.296 3.232-29.024 5.088-37.408 11.424-83.968-24.896-127.488-24.832-29.792-28.192-46.496-30.432-57.536-1.056-5.28-2.176-10.752-4.928-16.256C870.336-56.544 814.56-89.536 743.328-89.536L743.328-89.536zM117.76 445.792c-23.232 0-42.176-18.656-42.176-41.6l0-405.952c0-22.976 18.944-41.632 42.176-41.632l110.496 0L228.256 445.792 117.76 445.792 117.76 445.792zM117.76 445.792"  horiz-adv-x="1024" />

    
    <glyph glyph-name="skip" unicode="&#59160;" d="M1011.168 408.864c0 10.368-4.512 19.648-11.552 26.208L605.6 775.36c-6.272 5.344-14.272 8.672-23.104 8.672-19.776 0-35.744-15.968-35.744-35.712l0-150.624C245.568 549.056 33.504 327.648 12.832 43.456c0.992-12.064 10.848-21.632 23.136-21.632 4.736 0 9.184 1.44 12.896 3.872 0.064 0.064 0-0.192 0.064-0.192 52.032 36.928 96.992 64.48 132.096 83.008 63.968 35.2 154.464 65.28 258.368 84.544l0 0.16c14.848 0 26.88 12.288 26.88 27.488 0 15.168-12.032 27.488-26.88 27.488-3.456 0-6.752-0.672-9.792-1.888-166.4-32.608-275.936-85.664-361.92-147.2 55.488 204.096 191.808 387.584 512.16 447.936l0 0c14.144 2.304 24.992 14.912 24.992 30.144 0 0.384 0 0.8-0.032 1.184L604.8 578.4 604.8 693.248l331.84-284.544-328.192-280.864-2.432 0 0 138.592-0.064 0c-0.928 16-13.824 28.672-29.568 28.672-16.352 0-29.632-13.664-29.632-30.528 0 0 0 0 0 0 0 0 0 0 0 0l0-56.128 0-75.2 0-64.352c0-19.776 15.936-35.712 35.712-35.712 8.416 0 16 3.168 22.144 8.064L998.72 381.568c0 0.032-0.128 0.064-0.064 0.096C1006.304 388.192 1011.168 397.984 1011.168 408.864z"  horiz-adv-x="1024" />

    
    <glyph glyph-name="iconfontplay2" unicode="&#59161;" d="M512 896C230.4 896 0 665.6 0 384c0-281.6 230.4-512 512-512 117.76 0 227.84 38.4 320 110.08 10.24 7.68 12.8 23.04 5.12 35.84-7.68 10.24-23.04 12.8-35.84 5.12C719.36-43.52 616.96-76.8 512-76.8 256-76.8 51.2 128 51.2 384 51.2 640 256 844.8 512 844.8 768 844.8 972.8 640 972.8 384c0-87.04-25.6-171.52-69.12-243.2-7.68-12.8-2.56-28.16 7.68-33.28 12.8-7.68 28.16-2.56 33.28 7.68 51.2 79.36 76.8 174.08 76.8 271.36C1024 665.6 793.6 896 512 896zM714.24 437.76c-17.92 15.36-245.76 222.72-245.76 222.72-10.24 10.24-25.6 7.68-35.84-2.56-5.12-5.12-7.68-12.8-7.68-17.92 0 0 0 0 0 0 0 0 0-499.2 0-512 0-15.36 10.24-25.6 25.6-25.6 5.12 0 12.8 2.56 15.36 7.68 2.56 2.56 217.6 186.88 240.64 207.36 23.04 20.48 33.28 38.4 33.28 64C742.4 404.48 732.16 422.4 714.24 437.76zM680.96 360.96c-7.68-5.12-204.8-176.64-204.8-176.64l0 399.36c0 0 186.88-166.4 202.24-181.76C696.32 384 698.88 376.32 680.96 360.96z"  horiz-adv-x="1024" />

    
    <glyph glyph-name="iconfontstop" unicode="&#59162;" d="M512 896C230.4 896 0 665.6 0 384c0-281.6 230.4-512 512-512 117.76 0 227.84 38.4 320 110.08 10.24 7.68 12.8 23.04 5.12 35.84-7.68 10.24-23.04 12.8-35.84 5.12C719.36-43.52 616.96-76.8 512-76.8 256-76.8 51.2 128 51.2 384 51.2 640 256 844.8 512 844.8 768 844.8 972.8 640 972.8 384c0-87.04-25.6-171.52-69.12-243.2-7.68-12.8-2.56-28.16 7.68-33.28 12.8-7.68 28.16-2.56 33.28 7.68 51.2 79.36 76.8 174.08 76.8 271.36C1024 665.6 793.6 896 512 896zM686.08 588.8 337.92 588.8c-17.92 0-30.72-12.8-30.72-30.72l0-348.16c0-17.92 12.8-30.72 30.72-30.72l348.16 0c17.92 0 30.72 12.8 30.72 30.72L716.8 558.08C716.8 576 704 588.8 686.08 588.8zM665.6 238.08c0-5.12-2.56-7.68-7.68-7.68L366.08 230.4c-5.12 0-7.68 2.56-7.68 7.68L358.4 529.92c0 5.12 2.56 7.68 7.68 7.68l291.84 0c5.12 0 7.68-2.56 7.68-7.68L665.6 238.08z"  horiz-adv-x="1024" />

    
    <glyph glyph-name="store" unicode="&#59170;" d="M957.866667 725.333333c-2.133333 59.733333-51.2 106.666667-110.933333 106.666667 0 0-2.133333 0-2.133333 0 0 0-2.133333 0-2.133333 0L83.2 832C78.933333 832 72.533333 829.866667 68.266667 825.6 66.133333 821.333333 61.866667 817.066667 61.866667 810.666667l0-761.6c0 0 0 0 0 0C64-12.8 113.066667-64 174.933333-64c0 0 2.133333 0 2.133333 0 0 0 2.133333 0 2.133333 0l362.666667 0c25.6 0 29.866667 10.666667 29.866667 21.333333L571.733333 341.333333l172.8 0 0-381.866667c0-6.4 4.266667-12.8 8.533333-17.066667 4.266667-4.266667 8.533333-6.4 14.933333-6.4l168.533333 0c10.666667 0 21.333333 8.533333 21.333333 21.333333 0 0 0 0 0 0 0 0 0 2.133333 0 2.133333L957.866667 723.2C957.866667 723.2 957.866667 723.2 957.866667 725.333333zM915.2 721.066667C915.2 718.933333 917.333333 718.933333 915.2 721.066667l0-134.4C915.2 541.866667 874.666667 512 829.866667 512c-44.8 0-83.2 29.866667-83.2 72.533333 0 0 0 0 0 2.133333l0 0L746.666667 789.333333l-42.666667 0 0-202.666667 0 0c0 0 0 0 0-2.133333-2.133333-44.8-42.666667-72.533333-87.466667-72.533333-44.8 0-83.2 29.866667-83.2 72.533333 0 0 0 0 0 2.133333l0 0L533.333333 789.333333l-42.666667 0 0-202.666667 0 0c0 0 0 0 0-2.133333-2.133333-44.8-42.666667-72.533333-87.466667-72.533333-44.8 0-81.066667 27.733333-83.2 72.533333L320 789.333333l-42.666667 0 0-204.8c-2.133333-44.8-42.666667-72.533333-87.466667-72.533333-46.933333 0-83.2 29.866667-83.2 74.666667L106.666667 789.333333l736 0c0 0 2.133333 0 2.133333 0 2.133333 0 2.133333 0 4.266667 0C883.2 789.333333 915.2 757.333333 915.2 721.066667zM104.533333 49.066667 104.533333 499.2C128 480 157.866667 469.333333 189.866667 469.333333c44.8 0 83.2 19.2 106.666667 51.2 23.466667-32 61.866667-51.2 106.666667-51.2 44.8 0 83.2 19.2 106.666667 51.2 23.466667-32 61.866667-51.2 106.666667-51.2 44.8 0 83.2 19.2 106.666667 51.2 23.466667-32 61.866667-51.2 106.666667-51.2 34.133333 0 64 10.666667 87.466667 29.866667L917.333333-21.333333l-128 0L789.333333 362.666667c0 12.8-8.533333 21.333333-21.333333 21.333333l-213.333333 0c-12.8 0-21.333333-8.533333-21.333333-21.333333 0 0 0 0 0 0 0 0 0 0 0 0L533.333333-21.333333 179.2-21.333333c0 0-2.133333 0-2.133333 0-2.133333 0-2.133333 0-2.133333 0C138.666667-21.333333 104.533333 10.666667 104.533333 49.066667z"  horiz-adv-x="1024" />

    
    <glyph glyph-name="phone" unicode="&#59173;" d="M942.08 157.696c-25.6 23.552-55.296 47.104-76.8 61.44-27.648 19.456-57.344 38.912-84.992 51.2-43.008 21.504-59.392 25.6-70.656 25.6-19.456 0-35.84-10.24-51.2-29.696-8.192-12.288-17.408-29.696-23.552-45.056-4.096-10.24-12.288-27.648-17.408-33.792-8.192 2.048-31.744 12.288-70.656 37.888-35.84 25.6-74.752 57.344-104.448 84.992-29.696 29.696-59.392 68.608-84.992 104.448-25.6 37.888-35.84 61.44-37.888 70.656 6.144 4.096 23.552 12.288 33.792 17.408 15.36 6.144 31.744 12.288 45.056 23.552 21.504 15.36 29.696 31.744 29.696 51.2 0 10.24-2.048 27.648-25.6 70.656-12.288 25.6-31.744 55.296-51.2 84.992-15.36 21.504-38.912 51.2-61.44 76.8-27.648 27.648-47.104 40.96-66.56 40.96-47.104 0-100.352-68.608-114.688-87.04-19.456-25.6-66.56-96.256-66.56-159.744 0-59.392 40.96-138.24 74.752-194.56 45.056-72.704 108.544-153.6 177.152-224.256l21.504-21.504 0 0c70.656-68.608 149.504-132.096 224.256-177.152 23.552-15.36 51.2-29.696 78.848-43.008l0 0c4.096-2.048 6.144-2.048 10.24-2.048 15.36 0 27.648 12.288 27.648 27.648 0 10.24-6.144 21.504-17.408 25.6-21.504 10.24-45.056 23.552-70.656 38.912-70.656 43.008-145.408 102.4-212.992 168.96l-21.504 21.504c-66.56 68.608-125.952 143.36-168.96 212.992-43.008 68.608-66.56 128-66.56 163.84 0 31.744 19.456 78.848 53.248 123.904 15.36 19.456 29.696 37.888 45.056 51.2 15.36 13.312 23.552 17.408 27.648 17.408 10.24-4.096 43.008-31.744 87.04-98.304 17.408-25.6 33.792-51.2 45.056-74.752 15.36-27.648 17.408-40.96 17.408-43.008 0 0-4.096-4.096-10.24-8.192-8.192-4.096-21.504-10.24-31.744-15.36-15.36-6.144-27.648-12.288-40.96-19.456-19.456-12.288-27.648-27.648-27.648-45.056 0-8.192 0-33.792 49.152-104.448 25.6-37.888 59.392-80.896 92.16-112.64l0 0c31.744-31.744 74.752-66.56 112.64-92.16 70.656-47.104 96.256-49.152 104.448-49.152l0 0c17.408 0 31.744 8.192 45.056 27.648 8.192 10.24 12.288 25.6 19.456 40.96 4.096 10.24 10.24 23.552 15.36 31.744 6.144 4.096 10.24 6.144 10.24 6.144 2.048 0 15.36-2.048 43.008-17.408 21.504-12.288 49.152-27.648 74.752-45.056 63.488-45.056 94.208-76.8 98.304-87.04-2.048-4.096-6.144-12.288-17.408-27.648-12.288-15.36-31.744-31.744-51.2-45.056-29.696-21.504-61.44-38.912-87.04-47.104l0 0c-10.24-4.096-17.408-15.36-17.408-25.6 0-15.36 12.288-27.648 27.648-27.648 2.048 0 4.096 0 6.144 2.048l0 0c2.048 0 2.048 0 4.096 2.048l0 0c45.056 15.36 82.944 40.96 102.4 55.296 21.504 15.36 87.04 70.656 87.04 115.712C982.016 110.592 969.728 130.048 942.08 157.696z"  horiz-adv-x="1024" />

    
    <glyph glyph-name="gengduo" unicode="&#58994;" d="M512 482.794074c-54.564733 0-98.795097-44.233434-98.795097-98.795097 0-54.562686 44.230364-98.79305 98.795097-98.79305 54.562686 0 98.795097 44.230364 98.795097 98.79305C610.795097 438.561663 566.561663 482.794074 512 482.794074zM116.817566 482.794074c-54.564733 0-98.795097-44.233434-98.795097-98.795097 0-54.562686 44.230364-98.79305 98.795097-98.79305 54.562686 0 98.795097 44.230364 98.795097 98.79305C215.613686 438.561663 171.380252 482.794074 116.817566 482.794074zM907.181411 482.794074c-54.564733 0-98.795097-44.233434-98.795097-98.795097 0-54.562686 44.230364-98.79305 98.795097-98.79305 54.562686 0 98.795097 44.230364 98.795097 98.79305C1005.977531 438.561663 961.744098 482.794074 907.181411 482.794074z"  horiz-adv-x="1024" />

    
    <glyph glyph-name="camera1" unicode="&#58997;" d="M511.96 507.276c-92.418 0-167.363-74.935-167.363-167.358 0-92.424 74.945-167.339 167.363-167.339 92.441 0 167.37 74.915 167.37 167.339 0 92.423-74.929 167.358-167.37 167.358v0zM913.033 632.761h-174.863c-9.301 28.523-41.006 113.88-87.434 113.88h-277.551c-43.019 0-77.841-85.357-88.283-113.88h-174.021c-32.834 0-59.42-28.189-59.42-62.918v-487.599c0-34.746 26.587-62.924 59.42-62.924h802.151c32.834 0 59.432 28.178 59.432 62.924l0 487.611c0.001 34.735-26.609 62.907-59.431 62.907v0zM511.854 130.484c-115.524 0-209.17 93.677-209.17 209.223 0 115.548 93.647 209.229 209.17 209.229 115.502 0 209.165-93.682 209.165-209.229 0-115.547-93.663-209.223-209.165-209.223v0zM811.793 507.216c-19.222 0-34.812 15.63-34.812 34.926 0 19.305 15.589 34.941 34.812 34.941 19.245 0 34.847-15.635 34.847-34.941 0-19.29-15.601-34.926-34.847-34.926v0zM255.607 687.056c0-12.482-10.119-22.597-22.598-22.597l-105.012-0c-12.477 0-22.597 10.114-22.597 22.597v0c0 12.483 10.119 22.598 22.597 22.598h105.013c12.476 0 22.597-10.114 22.597-22.598v0 0zM255.607 687.056z"  horiz-adv-x="1024" />

    
    </font>
</defs>
</svg>
